<?xml version="1.0" standalone="no"?>
<!DOCTYPE svg PUBLIC "-//W3C//DTD SVG 1.1//EN" "http://www.w3.org/Graphics/SVG/1.1/DTD/svg11.dtd" >
<svg xmlns="http://www.w3.org/2000/svg" xmlns:xlink="http://www.w3.org/1999/xlink" version="1.1">
<metadata></metadata>
<defs>
<font id="bayardregular" horiz-adv-x="679" >
<font-face units-per-em="2048" ascent="1638" descent="-410" />
<missing-glyph horiz-adv-x="270" />
<glyph horiz-adv-x="0" />
<glyph horiz-adv-x="682" />
<glyph unicode="&#xa;" horiz-adv-x="1232" />
<glyph unicode="&#xd;" horiz-adv-x="1232" />
<glyph unicode=" "  horiz-adv-x="270" />
<glyph unicode="&#x09;" horiz-adv-x="270" />
<glyph unicode="&#xa0;" horiz-adv-x="270" />
<glyph unicode="!" horiz-adv-x="284" d="M66 29v116q0 12 8.5 21.5t19.5 9.5h94q11 0 20 -9.5t9 -21.5v-116q0 -11 -9.5 -20t-19.5 -9h-94q-10 0 -19 9t-9 20zM74 1194q0 11 7.5 20t20.5 9h80q12 0 20.5 -9t8.5 -20v-936q0 -12 -8 -20.5t-21 -8.5h-78q-13 0 -20.5 8.5t-7.5 20.5z" />
<glyph unicode="&#x22;" horiz-adv-x="571" d="M49 866v340q0 6 5.5 11.5t11.5 5.5h151q6 0 11 -4.5t5 -10.5v-344q0 -14 -14 -14h-153q-6 0 -11.5 5t-5.5 11zM338 866v340q0 6 5 11.5t11 5.5h152q6 0 11 -4.5t5 -10.5v-344q0 -14 -14 -14h-154q-6 0 -11 5t-5 11z" />
<glyph unicode="#" horiz-adv-x="1163" d="M27 408l12 77q3 23 35 23h248l34 209h-245q-12 0 -19.5 10.5t-5.5 22.5l14 77q6 25 33 25l248 -2l59 344q4 29 29 29h80q12 0 21.5 -9.5t7.5 -19.5l-60 -344h211l59 344q4 29 29 29h80q12 0 21.5 -9.5t7.5 -19.5l-62 -344l248 -2q12 0 19 -10t4 -23l-15 -76 q-5 -24 -33 -24h-245l-37 -209h246q12 0 19.5 -10t4.5 -23l-14 -78q-3 -22 -33 -22h-246l-61 -344q-4 -29 -29 -29h-78q-13 0 -21.5 8.5t-6.5 20.5l59 344h-211l-61 -344q-4 -29 -29 -29h-78q-13 0 -21.5 8.5t-6.5 20.5l59 344h-248q-10 0 -17 11.5t-5 23.5zM457 508l213 -2 l35 209l-211 2z" />
<glyph unicode="$" horiz-adv-x="704" d="M33 770v207q0 4 0.5 11.5t4.5 30t11 44t22.5 49t36.5 49.5t55.5 42t76.5 30v178q0 6 5 11t11 5h193q6 0 11 -4t5 -10v-190q48 -18 83 -49.5t51 -64.5t25 -63.5t10 -49.5l1 -19v-158q0 -6 -4 -11t-10 -5h-199q-6 0 -10 5t-4 11v158q0 27 -19.5 51.5t-56.5 24.5t-54.5 -24 t-17.5 -52v-207q0 -19 11 -30t21 -12l11 -1l139 -2q48 -5 87 -22t62 -41t40.5 -51.5t24.5 -54t11.5 -48.5t4.5 -36v-13v-213q0 -4 -0.5 -11.5t-4.5 -30t-11 -44t-22.5 -49t-36.5 -49.5t-55.5 -42t-76.5 -30v-180q0 -15 -14 -15h-195q-6 0 -11 5.5t-5 11.5v188 q-48 18 -83 49.5t-51 64.5t-25 63.5t-10 49.5l-1 19v157q0 6 5 11.5t11 5.5h195q6 0 11 -4t5 -10v-160q0 -27 19.5 -51.5t56.5 -24.5t54 24t17 52v213q0 19 -11 30t-21 12l-11 1h-104q-55 0 -99.5 15t-71 38.5t-46.5 52t-28.5 57t-13 52t-4.5 38.5z" />
<glyph unicode="%" horiz-adv-x="1286" d="M29 899q0 32 4.5 67.5t20.5 83t41.5 84.5t72 63t106.5 26t107 -26t72 -63t41 -84.5t21 -83.5t5 -67t-5 -67t-21 -83.5t-41 -84.5t-72 -63t-107 -26t-106.5 26t-72 63t-41.5 84.5t-20.5 83t-4.5 67.5zM201 76l678 1177q3 5 11 7t11 0l168 -97q13 -6 8 -20l-682 -1182 q-9 -9 -20 -4l-168 96q-14 7 -6 23zM209 901q-2 -55 15 -108.5t50 -53.5t50.5 52t15.5 106q2 54 -15.5 108t-50.5 54t-50 -53t-15 -105zM768 324q0 31 5 67t21 83.5t41 84t72 62.5t107 26t107 -26t72 -62.5t41 -84t21 -83.5t5 -67t-5 -67t-21 -83.5t-41 -84.5t-72 -63 t-107 -26t-107 26t-72 63t-41 84.5t-21 83.5t-5 67zM948 326q-2 -54 15.5 -108t50.5 -54t50 53t15 105q2 54 -15 107.5t-50 53.5t-50.5 -51.5t-15.5 -105.5z" />
<glyph unicode="&#x26;" horiz-adv-x="628" d="M68 215v260q0 83 51 146q10 13 -2 28q-49 52 -49 125v234q0 98 69 166.5t166 68.5q98 0 167 -68.5t69 -166.5v-156q0 -9 -6 -15t-15 -6h-112q-9 0 -15 6t-6 15v188q0 36 -23 59t-59 23q-34 0 -58 -25.5t-24 -58.5v-256q0 -30 20.5 -50.5t51.5 -20.5h72q20 0 20 -21v-80 q0 -20 -20 -20h-62q-34 0 -58 -24t-24 -58v-289q0 -37 23.5 -60.5t60.5 -23.5q34 0 57 25.5t23 60.5v281q0 20 21 20h194q21 0 21 -20v-101q0 -20 -21 -20h-41q-20 0 -20 -21v-145q0 -97 -69 -166t-167 -69q-97 0 -166 69t-69 166z" />
<glyph unicode="'" horiz-adv-x="282" d="M49 866v340q0 6 5.5 11.5t11.5 5.5h151q6 0 11 -4.5t5 -10.5v-344q0 -14 -14 -14h-153q-6 0 -11.5 5t-5.5 11z" />
<glyph unicode="(" horiz-adv-x="397" d="M41 610q0 53 3 113.5t12.5 144.5t24.5 161t42 155t62.5 135t88 93t115.5 36v-86q-54 0 -90.5 -108.5t-49 -255t-16.5 -250.5t-2 -138q-2 -34 2 -137.5t16.5 -250t49 -255t90.5 -108.5v-84q-63 0 -115.5 35.5t-88 92.5t-62.5 135t-42 154.5t-24.5 160.5t-12.5 144t-3 113z " />
<glyph unicode=")" horiz-adv-x="397" d="M8 -141q54 0 90.5 108.5t49 255t16.5 250t2 137.5q2 34 -2 138t-16.5 250.5t-49 255t-90.5 108.5v86q63 0 115.5 -36t88 -93t62.5 -135t42 -155t24.5 -161t12.5 -144.5t3 -113.5t-3 -113t-12.5 -144t-24.5 -160.5t-42 -154.5t-62.5 -135t-88 -92.5t-115.5 -35.5v84z" />
<glyph unicode="*" horiz-adv-x="708" d="M35 1073q3 13 12 17l170 98l-170 96q-22 15 -10 39l39 70q6 10 18 13t21 -3l170 -98v196q0 11 7.5 20t20.5 9h80q12 0 20.5 -9t8.5 -20v-194l170 98q10 6 21.5 3t17.5 -15l39 -68q13 -25 -11 -39l-170 -98l170 -98q11 -6 14 -17t-3 -22l-39 -68q-13 -25 -39 -10l-170 96 v-197q0 -12 -8 -20t-21 -8h-78q-28 0 -28 28v195l-170 -98q-9 -5 -22 -3t-19 13l-39 72q-5 9 -2 22z" />
<glyph unicode="+" horiz-adv-x="960" d="M74 514v193q0 6 4 11t10 5h279v278q0 6 5 11.5t11 5.5h192q6 0 11.5 -4t5.5 -10v-281h280q15 0 15 -14v-195q0 -6 -5.5 -11t-11.5 -5h-278v-279q0 -14 -14 -14h-195q-6 0 -11 5t-5 11v277h-277q-6 0 -11 5t-5 11z" />
<glyph unicode="," horiz-adv-x="307" d="M43 25v176q0 12 7 19t18 7h174q24 0 24 -26v-176q0 -66 -35 -110t-102 -75q-8 0 -8 6v62q0 3 6 6q31 12 45 31t23 47q3 8 -5 8h-122q-10 0 -17.5 7t-7.5 18z" />
<glyph unicode="-" horiz-adv-x="581" d="M49 532v97q0 20 21 20h442q20 0 20 -20v-97q0 -20 -20 -20h-442q-21 0 -21 20z" />
<glyph unicode="." horiz-adv-x="301" d="M39 41v143q0 17 12 29t29 12h141q17 0 29 -12t12 -29v-143q0 -17 -12 -29t-29 -12h-141q-17 0 -29 12t-12 29z" />
<glyph unicode="/" horiz-adv-x="585" d="M20 -152l408 1346q8 29 29 29h80q12 0 21.5 -9.5t6.5 -19.5l-409 -1346q-7 -28 -29 -28h-78q-14 0 -23 8t-6 20z" />
<glyph unicode="0" horiz-adv-x="745" d="M49 602q0 102 11.5 194t36.5 174.5t62 142.5t92 95t122 35q71 0 127.5 -36t92.5 -96t60 -144t33.5 -173.5t9.5 -191.5q0 -131 -16.5 -238.5t-53 -196t-101 -138t-152.5 -49.5q-90 0 -155 50.5t-100.5 140.5t-52 196t-16.5 235zM238 602q1 -197 40.5 -330t94.5 -133 q58 1 96 133.5t41 329.5q-3 199 -41.5 331t-95.5 132q-56 0 -94.5 -134.5t-40.5 -328.5z" />
<glyph unicode="1" horiz-adv-x="432" d="M16 1061v141q0 9 6 15t15 6h291q20 0 20 -21v-1182q0 -20 -20 -20h-142q-20 0 -20 20v1000q0 20 -21 20h-108q-9 0 -15 6t-6 15z" />
<glyph unicode="2" horiz-adv-x="675" d="M43 20q1 209 47.5 340t157.5 246q41 43 66 71t57 67.5t49 66.5t31.5 61t14 59t-12.5 51.5t-39 47.5q-56 44 -114 11.5t-58 -103.5v-125q0 -20 -21 -20h-141q-21 0 -21 20v109q0 134 81 227.5t225 93.5q61 0 110 -19t79.5 -49t50.5 -69t28 -75.5t8 -72.5 q0 -116 -51 -215.5t-168 -212.5q-97 -97 -143 -174t-50 -172q0 -20 21 -20h338q20 0 20 -21v-123q0 -20 -20 -20h-525q-20 0 -20 20z" />
<glyph unicode="3" horiz-adv-x="716" d="M35 338q0 20 20 20h142q20 0 20 -20q6 -188 135 -188q137 0 137 182q0 94 -36.5 154t-102.5 67q-20 3 -20 22v121q0 18 18 21q51 10 82 70t31 135q0 76 -27.5 123t-85.5 47q-47 0 -75.5 -33t-32.5 -94q0 -21 -21 -21h-141q-9 0 -15 6t-6 15q7 126 89.5 203t201.5 75 q137 -1 216 -95t79 -235q0 -161 -84 -260q-12 -12 0 -28q50 -52 81.5 -131t31.5 -158q0 -154 -86 -255t-238 -101q-134 0 -220.5 99t-92.5 259z" />
<glyph unicode="4" horiz-adv-x="690" d="M18 397v115q0 10 7 27l325 669q6 15 25 15h180q20 0 20 -21v-655q0 -9 6 -15t15 -6h35q20 0 20 -20v-109q0 -20 -20 -20h-35q-9 0 -15 -6t-6 -15v-336q0 -20 -20 -20h-139q-21 0 -21 20v336q0 21 -20 21h-336q-21 0 -21 20zM217 551q-4 -10 0.5 -17.5t15.5 -7.5h142 q20 0 20 21v338q0 15 -9 17t-15 -13z" />
<glyph unicode="5" horiz-adv-x="712" d="M41 334q-6 37 18 37h148q11 0 16 -5t5.5 -10t0.5 -16q6 -77 44 -129.5t89 -52.5q57 0 97.5 62.5t40.5 150.5q0 89 -40.5 151t-97.5 62h-266q-20 0 -20 20v598q0 21 20 21h525q20 0 20 -21v-125q0 -20 -20 -20h-357q-20 0 -20 -21v-264q0 -20 20 -20h98q86 -1 159 -51.5 t115 -136.5t42 -187q0 -156 -94 -266.5t-226 -110.5q-122 0 -212.5 96t-104.5 238z" />
<glyph unicode="6" horiz-adv-x="722" d="M59 352v551q6 142 99 241t221 99q68 0 118.5 -26t108.5 -84q14 -15 0 -29l-92 -92q-16 -16 -29 4q-25 38 -47 52.5t-55 14.5q-65 0 -100 -48.5t-35 -131.5v-194q0 -11 7 -16t17 -1q48 18 107 23q134 0 226.5 -105.5t92.5 -253.5q0 -161 -93 -268.5t-226 -107.5 q-132 0 -226 106.5t-94 265.5zM248 352q0 -97 39.5 -160t95.5 -63q58 0 97.5 63t39.5 160q0 78 -38 140.5t-99 62.5q-57 0 -96 -63.5t-39 -139.5z" />
<glyph unicode="7" horiz-adv-x="677" d="M16 1071v131q0 9 6 15t15 6h598q20 0 20 -21v-117q0 -4 -4 -24l-327 -1045q-6 -16 -25 -16h-145q-11 0 -15.5 6.5t-1.5 16.5l322 1005q3 10 -1.5 16.5t-15.5 6.5h-405q-21 0 -21 20z" />
<glyph unicode="8" horiz-adv-x="724" d="M43 336q0 186 113 293q9 9 2 22q-35 42 -56.5 109.5t-21.5 132.5q0 151 82 250.5t200 99.5t200.5 -99.5t82.5 -250.5q0 -66 -20.5 -133t-55.5 -109q-9 -13 0 -22q113 -107 113 -293q0 -148 -94 -252t-226 -104t-225.5 104t-93.5 252zM231 332q0 -83 40 -143t96 -60 q57 0 97 59.5t40 143.5q0 92 -37.5 157.5t-99.5 65.5q-63 0 -99.5 -67t-36.5 -156zM250 905q0 -83 32.5 -136.5t79.5 -53.5t80 53.5t33 136.5q0 84 -33 135.5t-80 51.5t-79.5 -51.5t-32.5 -135.5z" />
<glyph unicode="9" horiz-adv-x="722" d="M23 887q0 148 93.5 252t225.5 104q131 0 225.5 -103t94.5 -249v-572q-6 -141 -98.5 -240t-221.5 -99q-68 0 -118.5 26t-108.5 84q-15 14 0 29l92 92q16 16 29 -4q26 -38 47.5 -53t54.5 -15q65 0 100 48.5t35 131.5v216q0 11 -7 15.5t-17 0.5q-48 -18 -107 -23 q-134 0 -226.5 105.5t-92.5 253.5zM201 891q0 -78 38 -140.5t99 -62.5q57 0 96 63.5t39 139.5q0 83 -40 143t-95 60q-57 0 -97 -59.5t-40 -143.5z" />
<glyph unicode=":" horiz-adv-x="350" d="M63 41v143q0 17 12 29t29 12h142q17 0 29 -12t12 -29v-143q0 -17 -12 -29t-29 -12h-142q-17 0 -29 12t-12 29zM63 451v143q0 17 12 29t29 12h142q17 0 29 -12t12 -29v-143q0 -17 -12 -29t-29 -12h-142q-17 0 -29 12t-12 29z" />
<glyph unicode=";" horiz-adv-x="350" d="M63 27v176q0 12 7 19t18 7h174q11 0 18 -7t7 -19v-176q0 -66 -35 -110t-102 -75q-9 0 -9 6v62q0 3 6 6q31 12 45 31t23 47q3 8 -4 8h-123q-10 0 -17.5 7t-7.5 18zM63 451v143q0 17 12 29t29 12h142q17 0 29 -12t12 -29v-143q0 -17 -12 -29t-29 -12h-142q-17 0 -29 12 t-12 29z" />
<glyph unicode="=" horiz-adv-x="960" d="M74 309v193q0 6 4 11t10 5h784q15 0 15 -14v-195q0 -6 -5.5 -11t-11.5 -5h-780q-6 0 -11 5t-5 11zM74 719v192q0 6 4 11.5t10 5.5h784q6 0 10.5 -4.5t4.5 -10.5v-194q0 -6 -5.5 -11.5t-11.5 -5.5h-780q-6 0 -11 5.5t-5 11.5z" />
<glyph unicode="?" horiz-adv-x="487" d="M33 877q0 187 52.5 276.5t160.5 89.5q60 0 101 -23t64.5 -69.5t33.5 -107t12 -146.5q0 -84 -21 -150.5t-50.5 -106t-59.5 -70.5t-51 -63t-21 -65v-204q0 -9 -6 -15t-15 -6h-102q-20 0 -20 21v204q0 45 12 81t31 60t41.5 46t45.5 46t42 52.5t31 71.5t12 98q0 40 -1 61 t-5 47t-12 38.5t-23.5 21t-38.5 8.5q-53 0 -68.5 -40t-15.5 -156q0 -21 -21 -21h-88q-20 0 -20 21zM111 35v88q0 13 12 24t27 11h63q15 0 27 -11t12 -24v-88q0 -13 -12 -24t-27 -11h-63q-15 0 -27 11t-12 24z" />
<glyph unicode="@" horiz-adv-x="944" d="M45 416v315q0 179 126 305.5t304 126.5q117 0 216.5 -58t157.5 -157.5t58 -216.5v-334q0 -76 -55.5 -132t-132.5 -56q-57 0 -119 43q-52 -43 -133 -43q-83 3 -141 65.5t-58 147.5v309q0 87 61 147t148 60q89 0 147 -61.5t58 -145.5v-371q0 -16 10 -27t27 -11t27 10.5 t10 25.5l2 373q0 119 -85.5 202.5t-205.5 80.5q-113 -3 -192.5 -88t-79.5 -201v-303q0 -115 78.5 -199t191.5 -88q46 -2 117 21q16 3 26 -4l111 -64q11 -6 11 -14.5t-11 -14.5q-74 -41 -127 -57t-117 -16q-179 0 -304.5 126t-125.5 304zM420 426q0 -23 16 -40t39 -17 q24 0 40.5 16.5t16.5 40.5v305q0 24 -16.5 40.5t-40.5 16.5q-23 0 -39 -17t-16 -40v-305z" />
<glyph unicode="A" d="M23 23l174 1181q3 19 20 19h240q17 0 20 -19l182 -1181q2 -9 -3.5 -16t-14.5 -7h-188q-18 0 -21 18l-14 117q-3 19 -21 19h-110q-18 0 -21 -19l-18 -117q-3 -18 -21 -18h-186q-9 0 -14.5 7t-3.5 16zM283 369q-1 -9 5 -16t15 -7h76q9 0 14.5 7t3.5 16l-45 313 q-2 12 -12 12t-12 -12z" />
<glyph unicode="B" horiz-adv-x="792" d="M82 20v1182q0 21 20 21h383q86 0 147.5 -61.5t61.5 -147.5v-357q0 -41 -14 -73q-6 -17 6 -29q66 -80 66 -172v-113q0 -112 -82 -191t-195 -79h-373q-20 0 -20 20zM305 229q0 -20 21 -20h114q34 0 59 24t25 58v76q0 34 -25 58t-59 24h-114q-9 0 -15 -6t-6 -15v-199z M307 692q0 -20 21 -20h90q33 0 56.5 23.5t23.5 56.5v196q0 32 -24 56t-56 24h-90q-21 0 -21 -20v-316z" />
<glyph unicode="C" horiz-adv-x="770" d="M43 608q0 77 6 146t20.5 144t41.5 134.5t66 108t97.5 75.5t131.5 27q51 0 93 -9.5t73 -23.5t55 -39.5t40 -49.5t27.5 -61.5t17 -67t9 -75t4 -76.5t0.5 -79q0 -21 -20 -21h-191q-20 0 -20 21q0 54 -1.5 86.5t-7 65t-16 49.5t-29 27.5t-45.5 10.5q-127 0 -127 -393 q0 -387 127 -387q23 0 40 6t27.5 21.5t17 32.5t9.5 48t4 58.5t1 73.5q0 20 20 20h191q20 0 20 -20q0 -48 -0.5 -79t-4 -76.5t-9 -75t-17 -67t-27.5 -61.5t-40 -49.5t-55 -39.5t-73 -23.5t-93 -9.5q-73 0 -131.5 27t-97.5 75.5t-66 107.5t-41.5 133t-20.5 142t-6 143z" />
<glyph unicode="D" horiz-adv-x="745" d="M82 20v1182q0 21 20 21h60q55 0 84 -1t82 -6t83.5 -15.5t75 -31.5t71 -51t57 -76t47 -105.5t27.5 -141.5t11 -181q0 -128 -18.5 -227t-43.5 -163.5t-73 -109t-85.5 -66.5t-104 -33.5t-104 -13t-109.5 -1.5h-60q-20 0 -20 20zM297 229q0 -24 22 -17q156 43 156 402 q0 104 -14.5 180t-38.5 115.5t-49 58.5t-54 23q-22 3 -22 -18v-744z" />
<glyph unicode="E" horiz-adv-x="712" d="M82 20v1182q0 21 20 21h529q20 0 20 -21v-188q0 -21 -20 -21h-303q-21 0 -21 -20v-230q0 -20 21 -20h303q20 0 20 -21v-186q0 -20 -20 -20h-303q-21 0 -21 -21v-225q0 -9 6 -15t15 -6h303q20 0 20 -20v-189q0 -20 -20 -20h-529q-20 0 -20 20z" />
<glyph unicode="F" horiz-adv-x="700" d="M82 20v1182q0 21 20 21h529q20 0 20 -21v-188q0 -21 -20 -21h-303q-21 0 -21 -20v-230q0 -20 21 -20h303q20 0 20 -21v-186q0 -20 -20 -20h-303q-21 0 -21 -21v-455q0 -20 -20 -20h-185q-20 0 -20 20z" />
<glyph unicode="G" horiz-adv-x="774" d="M43 629q1 52 3.5 99t12 111.5t24.5 117.5t42 108t63.5 92.5t91 61.5t121.5 24q63 0 114 -18.5t84 -47.5t57.5 -73t37 -85t20 -93.5t9.5 -89.5t2 -82q0 -6 -5 -10.5t-11 -4.5h-195q-14 0 -14 17q-1 51 -6 89.5t-16.5 71t-33 49.5t-51.5 17q-119 0 -119 -354 q0 -94 3.5 -155t15 -122.5t36.5 -92t64 -30.5q33 0 55 14.5t31 42.5t12 53t3 62q0 7 -5.5 12t-11.5 5h-112q-6 0 -11.5 5t-5.5 11v166q0 6 5.5 11t11.5 5h340q16 0 16 -16q0 -75 -2 -130t-9.5 -124t-21 -117.5t-38 -98.5t-58.5 -80.5t-84.5 -50t-114.5 -19.5 q-66 0 -120.5 25.5t-90 66t-62 99t-41 115t-23 124.5t-11 117t-2.5 102z" />
<glyph unicode="H" horiz-adv-x="802" d="M82 16v1192q0 6 5 10.5t11 4.5h193q6 0 11 -4.5t5 -10.5v-581q0 -6 5.5 -10.5t11.5 -4.5h155q6 0 11.5 5.5t5.5 11.5v577q0 6 5 11.5t11 5.5h193q6 0 11 -4.5t5 -10.5v-1194q0 -14 -14 -14h-195q-6 0 -11 4t-5 10v394q0 14 -15 14h-157q-6 0 -11.5 -4t-5.5 -10v-394 q0 -14 -14 -14h-195q-6 0 -11 5t-5 11z" />
<glyph unicode="I" horiz-adv-x="389" d="M82 16v1190q0 6 5 11.5t11 5.5h193q6 0 11 -4.5t5 -10.5v-1194q0 -14 -14 -14h-195q-6 0 -11 5t-5 11z" />
<glyph unicode="J" horiz-adv-x="704" d="M29 301v320q0 20 20 20h184q21 0 21 -20v-318q0 -50 36 -71q19 -10 38 -10q18 0 36 10q37 20 37 69v901q0 9 6 15t15 6h184q9 0 15 -6t6 -15l4 -895q0 -123 -87 -213.5t-210 -93.5h-8q-122 0 -208 85q-89 88 -89 216z" />
<glyph unicode="K" horiz-adv-x="720" d="M82 20v1182q0 21 20 21h185q20 0 20 -21v-424q0 -14 10.5 -15.5t14.5 11.5l162 432q6 17 22 17h178q10 0 15 -7t2 -18l-215 -571q-7 -13 0 -27l217 -575q3 -11 -2 -18t-15 -7h-180q-19 0 -24 16l-160 437q-4 13 -14.5 11.5t-10.5 -15.5v-429q0 -20 -20 -20h-185 q-20 0 -20 20z" />
<glyph unicode="L" horiz-adv-x="704" d="M80 1202q0 21 20 21h185q20 0 20 -21l2 -985q0 -20 21 -20h336q20 0 20 -21v-156q0 -20 -20 -20h-562q-20 0 -20 20z" />
<glyph unicode="M" horiz-adv-x="954" d="M82 16v1192q0 6 5 10.5t11 4.5h232q13 0 16 -15l121 -546q3 -12 9 -12t9 12l121 546q3 15 17 15h233q6 0 11 -4.5t5 -10.5v-1194q0 -14 -14 -14h-151q-6 0 -11.5 5t-5.5 11v461q0 9 -6.5 10.5t-9.5 -8.5l-137 -467q-2 -12 -19 -12h-82q-16 0 -18 12l-137 467q-2 7 -6 8.5 t-7.5 -1.5t-3.5 -9v-463q0 -14 -14 -14h-152q-6 0 -11 5t-5 11z" />
<glyph unicode="N" horiz-adv-x="802" d="M82 16v1192q0 6 5 10.5t11 4.5h197q13 0 16 -13l168 -495q2 -6 6 -8t7.5 0.5t3.5 9.5v491q0 6 5 10.5t11 4.5h193q6 0 11 -4.5t5 -10.5v-1194q0 -14 -14 -14h-199q-13 0 -16 12l-168 490q-2 6 -6 8t-7.5 -0.5t-3.5 -9.5v-484q0 -6 -4 -11t-10 -5h-195q-6 0 -11 5t-5 11z " />
<glyph unicode="O" horiz-adv-x="782" d="M43 610q0 51 3 102t12.5 115.5t24.5 120.5t42 112t62.5 95t88 63.5t115.5 24.5t115.5 -24.5t88 -63.5t62.5 -95t42 -112t24.5 -120.5t12.5 -115.5t3 -102t-3 -101.5t-12.5 -115t-24.5 -120.5t-42 -111t-62.5 -94t-88 -63.5t-115.5 -24.5t-115.5 24.5t-88 63.5t-62.5 94 t-42 111t-24.5 120.5t-12.5 115t-3 101.5zM268 610v-14q0 -25 2 -69q3 -59 12.5 -141.5t38 -143t70.5 -60.5t70.5 60.5t38 143t12.5 141.5q2 44 2 69v14v14q0 25 -2 69q-3 59 -12.5 141.5t-38 143t-70.5 60.5t-70.5 -60.5t-38 -143t-12.5 -141.5q-2 -44 -2 -69v-14z" />
<glyph unicode="P" horiz-adv-x="692" d="M82 16v1192q0 6 5 10.5t11 4.5h176q8 0 21.5 -0.5t52.5 -8t75 -22.5t79.5 -48t74.5 -78.5t52.5 -120.5t21.5 -169q0 -67 -8 -124.5t-22.5 -100t-33 -77.5t-42 -58.5t-46.5 -41.5t-49.5 -27.5t-48 -16t-45 -8t-37.5 -1.5t-28 1q-17 0 -17 -15v-291q0 -6 -4 -11t-10 -5 h-162q-6 0 -11 5t-5 11zM291 547q0 -17 14 -17q15 -1 30 2t36 17t37 37.5t27 70t11 109.5q0 62 -11 107.5t-27 68.5t-37 36.5t-36 16.5t-30 2q-14 0 -14 -16v-434z" />
<glyph unicode="Q" horiz-adv-x="864" d="M68 301v614q0 138 84.5 233t207.5 95q128 0 219 -95.5t91 -232.5v-673q0 -6 5 -11.5t11 -5.5h156q6 0 11 -4t5 -10v-195q0 -6 -4 -11t-10 -5h-475q-125 0 -213 88t-88 213zM293 303q0 -46 20.5 -70t55.5 -24t55 24t20 70v592q0 46 -20 70t-55 24t-55.5 -24t-20.5 -70 v-592z" />
<glyph unicode="R" horiz-adv-x="755" d="M82 20v1182q0 21 20 21h197q180 0 293 -122.5t113 -324.5q0 -206 -105 -317q-15 -15 2 -27q37 -30 59.5 -67t31 -84.5t10.5 -75.5t2 -78v-107q0 -20 -21 -20h-184q-21 0 -21 20v107q0 53 -11 91t-27 54.5t-32 26t-27 9.5l-11 1h-43q-21 0 -21 -20v-269q0 -20 -20 -20 h-185q-20 0 -20 20zM307 561q0 -9 6 -15t15 -5q19 3 37.5 9t43.5 22t43 39t31 63.5t13 91.5t-13 91.5t-31 64t-43 40t-43.5 22.5t-37.5 9q-9 1 -15 -5t-6 -15v-412z" />
<glyph unicode="S" horiz-adv-x="731" d="M45 770v207q0 6 0.5 15.5t6.5 37t16.5 52.5t33 56t53 53t80.5 37t111 15t111 -14.5t80.5 -38t53 -52t33 -57t16.5 -52t6 -37.5l1 -15v-158q0 -6 -4 -11t-10 -5h-199q-6 0 -10 5t-4 11v158q0 27 -19.5 51.5t-56.5 24.5t-54.5 -24t-17.5 -52v-207q0 -19 11 -30t21 -12 l11 -1l140 -2q48 -5 86.5 -22t62 -41t40.5 -51.5t24.5 -54t11.5 -48.5t4 -36v-13v-213q0 -6 -0.5 -15.5t-6.5 -37t-16.5 -52.5t-33 -56t-53 -53t-80.5 -37t-111 -15t-111 14.5t-80.5 38t-53 52t-33 57t-16.5 52t-7 38.5v14v157q0 6 5 11.5t11 5.5h195q6 0 11 -4t5 -10v-160 q0 -27 19.5 -51.5t56.5 -24.5t54.5 24t17.5 52v213q0 19 -10.5 30t-21.5 12l-11 1h-105q-55 0 -99.5 15t-71 38.5t-46.5 52t-28.5 57t-13 52t-4.5 38.5z" />
<glyph unicode="T" horiz-adv-x="632" d="M25 1040v166q0 6 5 11.5t11 5.5h553q14 0 14 -15v-168q0 -6 -4 -11t-10 -5h-152q-14 0 -14 -14v-994q0 -6 -4 -11t-10 -5h-195q-6 0 -11 5t-5 11v992q0 6 -4.5 11t-10.5 5h-147q-6 0 -11 5t-5 11z" />
<glyph unicode="U" horiz-adv-x="749" d="M78 276v930q0 6 5 11.5t11 5.5h195q14 0 14 -15v-929q0 -30 21 -54t51 -24t50.5 24t20.5 54v929q0 6 4.5 10.5t10.5 4.5h194q6 0 11.5 -5.5t5.5 -11.5v-930q0 -127 -85 -214t-212 -87t-212 87t-85 214z" />
<glyph unicode="V" horiz-adv-x="665" d="M8 1206q-3 17 12 17h197q12 0 16 -15l91 -653q1 -6 4.5 -7.5t7 0.5t4.5 7l74 653q0 6 5 10.5t11 4.5h197q17 0 14 -17l-184 -1192q-3 -14 -17 -14h-196q-14 0 -17 14z" />
<glyph unicode="W" horiz-adv-x="1075" d="M8 1206q-3 17 12 17h197q12 0 16 -15l91 -653q1 -6 4.5 -7.5t7 0.5t4.5 7l74 653q0 8 6 11q4 4 10 4h197q9 0 14 -9l2 -6l90 -653q2 -9 8.5 -8.5t8.5 8.5l73 653q0 6 5.5 10.5t11.5 4.5h196q18 0 15 -17l-185 -1192q-4 -14 -16 -14h-197q-13 0 -16 14l-88 482 q-1 7 -5.5 9t-8.5 -1t-5 -10l-73 -480q-3 -14 -17 -14h-196q-14 0 -17 14z" />
<glyph unicode="X" horiz-adv-x="651" d="M12 18l199 584q3 10 0 21l-199 581q-6 19 13 19h192q13 0 16 -13l80 -239q3 -9 10.5 -9t10.5 9l80 239q3 13 16 13h197q18 0 12 -19l-203 -581q-4 -11 0 -21l203 -584q6 -18 -12 -18h-197q-13 0 -16 12l-80 240q-3 9 -10.5 9t-10.5 -9l-80 -240q-3 -12 -16 -12h-192 q-19 0 -13 18z" />
<glyph unicode="Y" horiz-adv-x="684" d="M10 1204q-6 19 13 19h194q13 0 16 -13l99 -292q2 -7 6 -9.5t8 0t6 9.5l99 292q3 13 16 13h195q18 0 12 -19l-215 -596q-4 -16 -4 -18v-576q0 -14 -15 -14h-194q-6 0 -11.5 5t-5.5 11v574q0 2 -4 18z" />
<glyph unicode="Z" horiz-adv-x="712" d="M37 20v160q0 10 6 25l356 801q4 10 -0.5 17t-15.5 7h-326q-20 0 -20 21v151q0 21 20 21h598q9 0 15 -6t6 -15v-158q0 -9 -6 -24l-357 -803q-4 -10 1 -17t16 -7h325q9 0 15 -6t6 -15v-152q0 -20 -21 -20h-598q-20 0 -20 20z" />
<glyph unicode="[" horiz-adv-x="491" d="M74 -188v1601q0 6 4 10t10 4h375q14 0 14 -14v-119q0 -6 -5 -11t-11 -5h-238v-1333h240q14 0 14 -15v-118q0 -6 -5 -11.5t-11 -5.5h-373q-6 0 -10 5.5t-4 11.5z" />
<glyph unicode="\" horiz-adv-x="585" d="M20 1194q-3 10 7 19.5t22 9.5h80q21 0 29 -29l407 -1346q3 -12 -5.5 -20t-22.5 -8h-78q-22 0 -29 28z" />
<glyph unicode="]" horiz-adv-x="491" d="M14 -70q0 6 4.5 10.5t10.5 4.5h239v1333h-237q-6 0 -11.5 5t-5.5 11v119q0 14 15 14h374q7 0 11 -4t4 -10v-1601q0 -6 -4.5 -11.5t-10.5 -5.5h-372q-6 0 -11.5 5.5t-5.5 11.5v118z" />
<glyph unicode="_" horiz-adv-x="829" d="M20 -117q0 15 10.5 25t24.5 10h719q14 0 24.5 -10t10.5 -25v-67q0 -14 -10.5 -24.5t-24.5 -10.5h-719q-13 0 -24 10.5t-11 24.5v67z" />
<glyph unicode="`" horiz-adv-x="376" d="M51 1458q4 6 15 6h129q16 0 22 -12l82 -147q6 -11 2.5 -17t-14.5 -6h-129q-15 0 -23 12l-82 148q-6 10 -2 16z" />
<glyph unicode="a" horiz-adv-x="501" d="M18 16l156 1192q4 15 16 15h121q13 0 17 -15l155 -1192q3 -16 -14 -16h-129q-6 0 -11 4t-5 10l-15 131q0 6 -5 10.5t-11 4.5h-84q-6 0 -11 -4.5t-5 -10.5l-15 -131q0 -6 -5 -10t-11 -4h-129q-18 0 -15 16zM217 326q-3 -17 14 -17h41q18 0 15 17l-27 215q-2 9 -8 9t-8 -9z " />
<glyph unicode="b" horiz-adv-x="534" d="M66 16v1192q0 6 5 10.5t11 4.5h248q62 0 105.5 -44.5t43.5 -107.5v-309q0 -61 -45 -109q-13 -10 0 -20q45 -45 45 -107v-376q0 -62 -44 -106t-105 -44h-248q-6 0 -11 5t-5 11zM215 147q0 -6 5 -11t11 -5h35q25 0 44.5 18.5t19.5 43.5v309q0 26 -18.5 43.5t-45.5 17.5h-35 q-6 0 -11 -4t-5 -10v-402zM215 743q0 -6 5 -10t11 -4h35q26 0 44 18t20 44v237q0 25 -19 43.5t-45 18.5h-35q-6 0 -11 -4.5t-5 -10.5v-332z" />
<glyph unicode="c" horiz-adv-x="514" d="M57 190v842q0 87 59 149t148 62t148 -62t59 -149v-225q0 -6 -5 -10t-11 -4h-117q-6 0 -11 4t-5 10v221q0 23 -17.5 40t-40.5 17t-40 -17t-17 -40v-833q0 -23 17 -40.5t40 -17.5t40.5 17.5t17.5 40.5v221q0 6 5 10t11 4h117q6 0 11 -4t5 -10v-226q0 -86 -59 -148t-148 -62 t-148 62t-59 148z" />
<glyph unicode="d" horiz-adv-x="540" d="M66 20v1182q0 21 20 21h209q78 0 133 -55.5t55 -133.5v-846q0 -78 -55 -133t-133 -55h-209q-20 0 -20 20zM221 143q0 -20 21 -20h30q62 0 62 59v830q0 59 -62 59h-30q-21 0 -21 -20v-908z" />
<glyph unicode="e" horiz-adv-x="444" d="M66 14v1194q0 6 5 10.5t11 4.5h309q6 0 11.5 -4.5t5.5 -10.5v-118q0 -6 -4.5 -11.5t-10.5 -5.5h-160q-14 0 -14 -14v-428q0 -6 4 -11.5t10 -5.5h119q6 0 11.5 -4t5.5 -10v-121q0 -14 -15 -14h-121q-6 0 -10 -5t-4 -11v-285q0 -14 14 -14h160q6 0 10.5 -5.5t4.5 -11.5 v-119q0 -6 -5.5 -10t-11.5 -4h-309q-6 0 -11 4t-5 10z" />
<glyph unicode="f" horiz-adv-x="436" d="M66 16v1192q0 6 5 10.5t11 4.5h309q6 0 11.5 -4.5t5.5 -10.5v-118q0 -6 -4.5 -11.5t-10.5 -5.5h-160q-14 0 -14 -14v-428q0 -6 4 -11.5t10 -5.5h119q6 0 11.5 -4t5.5 -10v-121q0 -14 -15 -14h-121q-6 0 -10 -5t-4 -11v-435q0 -14 -14 -14h-123q-6 0 -11 5t-5 11z" />
<glyph unicode="g" horiz-adv-x="524" d="M57 190v842q0 85 58 146.5t141 64.5h8q84 0 144 -58q63 -61 63 -149v-223q0 -20 -20 -20h-109q-20 0 -20 20v221q0 24 -16.5 42t-39.5 18q-25 0 -42 -16.5t-17 -41.5v-833q0 -24 16 -42t39 -18q25 0 42.5 16.5t17.5 41.5v231q0 10 -11 10h-45q-20 0 -20 21v110 q0 21 20 21h185q20 0 20 -21v-378q0 -84 -58 -146t-141 -65h-8q-84 0 -144 58q-63 60 -63 148z" />
<glyph unicode="h" horiz-adv-x="544" d="M66 16v1192q0 6 5 10.5t11 4.5h117q6 0 11 -4.5t5 -10.5v-649q0 -6 5 -11t11 -5h84q6 0 10.5 5t4.5 11v649q0 6 5 10.5t11 4.5h117q6 0 11 -4.5t5 -10.5v-1194q0 -14 -14 -14h-119q-6 0 -11 5t-5 11v361q0 14 -15 14h-84q-6 0 -11 -4t-5 -10v-361q0 -6 -4 -11t-10 -5 h-119q-6 0 -11 5t-5 11z" />
<glyph unicode="i" horiz-adv-x="280" d="M66 16v1192q0 6 5 10.5t11 4.5h117q6 0 11 -4.5t5 -10.5v-1194q0 -14 -14 -14h-119q-6 0 -11 5t-5 11z" />
<glyph unicode="j" horiz-adv-x="509" d="M33 193v247q0 6 5 11.5t11 5.5h117q6 0 11 -4.5t5 -10.5v-237q0 -23 16.5 -41t39.5 -19q24 -1 41.5 15.5t17.5 40.5v1007q0 6 5 10.5t11 4.5h117q6 0 11 -4.5t5 -10.5v-1011q0 -86 -58 -151.5t-140 -65.5q-89 0 -152 62.5t-63 150.5z" />
<glyph unicode="k" horiz-adv-x="489" d="M66 16v1192q0 6 5 10.5t11 4.5h117q6 0 11 -4.5t5 -10.5v-313q0 -9 6.5 -10.5t9.5 8.5l95 317q3 13 18 13h117q17 0 14 -17l-170 -579q-3 -12 0 -21l170 -590q3 -16 -14 -16h-119q-16 0 -18 12l-93 326q-3 9 -9.5 8t-6.5 -10v-320q0 -6 -4 -11t-10 -5h-119q-6 0 -11 5 t-5 11z" />
<glyph unicode="l" horiz-adv-x="497" d="M66 16v1192q0 6 5 10.5t11 4.5h117q6 0 11 -4.5t5 -10.5v-1038q0 -6 5 -10t11 -4h234q14 0 14 -15v-127q0 -14 -14 -14h-383q-6 0 -11 5t-5 11z" />
<glyph unicode="m" horiz-adv-x="813" d="M66 16v1192q0 6 5 10.5t11 4.5h197q12 0 16 -15l102 -592q1 -7 5 -9.5t7.5 0t4.5 9.5l104 592q4 15 17 15h198q6 0 10.5 -4.5t4.5 -10.5v-1194q0 -14 -15 -14h-121q-6 0 -11 5t-5 11v629q0 -3 -7 -3.5t-7 3.5l-99 -631q-3 -14 -16 -14h-123q-12 0 -16 14l-99 631 q0 -4 -7 -3.5t-7 3.5v-629q0 -6 -4 -11t-10 -5h-119q-6 0 -11 5t-5 11z" />
<glyph unicode="n" horiz-adv-x="544" d="M66 16v1192q0 6 5 10.5t11 4.5h119q13 0 16 -15l96 -442q1 -6 9 -5t8 7v440q0 6 5 10.5t11 4.5h117q6 0 11 -4.5t5 -10.5v-1192q0 -6 -4 -11t-10 -5h-121q-13 0 -16 14l-97 435q-1 7 -8.5 5t-7.5 -8v-430q0 -6 -4 -11t-10 -5h-119q-6 0 -11 5t-5 11z" />
<glyph unicode="o" horiz-adv-x="528" d="M57 186v850q0 86 60.5 146.5t146.5 60.5t146.5 -60.5t60.5 -146.5v-850q0 -86 -60.5 -146t-146.5 -60t-146.5 60t-60.5 146zM207 197q0 -25 16.5 -41.5t40.5 -16.5t41 17t17 41v839q0 23 -17.5 40.5t-40.5 17.5t-40 -17.5t-17 -40.5v-839z" />
<glyph unicode="p" horiz-adv-x="522" d="M66 16v1192q0 6 5 10.5t11 4.5h248q60 0 104.5 -44.5t44.5 -107.5v-395q0 -62 -42 -106.5t-103 -45.5h-105q-14 0 -14 -14v-494q0 -6 -4 -11t-10 -5h-119q-6 0 -11 5t-5 11zM215 653q0 -6 5 -11t11 -5h35q26 0 45 18.5t19 44.5v328q0 25 -19 43.5t-45 18.5h-35 q-6 0 -11 -4.5t-5 -10.5v-422z" />
<glyph unicode="q" horiz-adv-x="536" d="M57 186v844q0 85 58 147.5t141 65.5h8q84 0 144 -58q63 -61 63 -149v-829q0 -17 -4 -45l92 -144q5 -8 2 -13t-12 -5h-115q-13 0 -18 10l-23 35q-1 -3 -3.5 -7t-13.5 -15.5t-24.5 -20t-38.5 -15.5t-55 -7q-84 1 -142.5 61.5t-58.5 144.5zM207 197q0 -23 17 -40t40 -16 q16 0 26 9.5t12 18.5l3 9l-49 72q-5 8 -2 13t12 5h56v766q0 23 -16.5 39.5t-39.5 18.5q-24 1 -41.5 -15.5t-17.5 -40.5v-839z" />
<glyph unicode="r" horiz-adv-x="538" d="M66 16v1192q0 6 5 10.5t11 4.5h248q60 0 104.5 -44.5t44.5 -107.5v-385q0 -63 -45 -108q-11 -9 -2 -21q20 -27 33.5 -80.5t13.5 -89.5v-371q0 -6 -5 -11t-11 -5h-119q-14 0 -14 14v373q-2 44 -31 90t-68 55q-16 3 -16 -14v-502q0 -6 -4 -11t-10 -5h-119q-6 0 -11 5t-5 11 zM215 664q0 -6 5 -11.5t11 -5.5h35q26 0 44 18.5t20 45.5v317q0 25 -19 43.5t-45 18.5h-35q-6 0 -11 -5.5t-5 -11.5v-409z" />
<glyph unicode="s" horiz-adv-x="505" d="M49 209v242q0 6 5.5 10t11.5 4h112q15 0 15 -14v-242q0 -34 18 -60t41 -26q25 0 43 26t18 60v291q0 18 -0.5 27t-3.5 22.5t-9 20t-18 11.5t-30 5q-84 2 -143.5 69t-59.5 162v195q0 95 60 163t143 68q85 0 145 -68t60 -163v-127q0 -6 -4.5 -10.5t-10.5 -4.5h-112 q-6 0 -11.5 5.5t-5.5 11.5v125q0 35 -18 61.5t-43 26.5q-23 0 -41 -26.5t-18 -61.5v-195q0 -19 0.5 -28t3.5 -23t9 -20.5t17.5 -11.5t28.5 -5h2q83 -1 143 -67q60 -68 60 -162v-291q0 -95 -60 -162t-145 -67q-84 0 -143.5 67t-59.5 162z" />
<glyph unicode="t" horiz-adv-x="454" d="M20 1085v121q0 6 5.5 11.5t11.5 5.5h383q14 0 14 -15v-123q0 -6 -4 -11t-10 -5h-101q-14 0 -14 -14v-1041q0 -14 -14 -14h-123q-6 0 -11 5t-5 11v1039q0 14 -15 14h-100q-6 0 -11.5 5t-5.5 11z" />
<glyph unicode="u" horiz-adv-x="540" d="M63 186v1020q0 6 5.5 11.5t11.5 5.5h117q6 0 11 -4.5t5 -10.5v-1009q0 -24 16 -42t39 -18q25 0 42.5 16.5t17.5 41.5v1011q0 6 5 10.5t11 4.5h117q6 0 11 -4.5t5 -10.5v-1022q0 -86 -60.5 -146t-146.5 -60t-146.5 60t-60.5 146z" />
<glyph unicode="v" horiz-adv-x="462" d="M27 1206q-3 17 14 17h121q6 0 11 -4.5t5 -10.5l45 -524h17l45 524q0 6 5 10.5t11 4.5h121q17 0 14 -17l-129 -1192q0 -6 -5 -10t-11 -4h-119q-6 0 -11 4t-5 10z" />
<glyph unicode="w" horiz-adv-x="724" d="M27 1206q-3 17 14 17h121q6 0 11 -4.5t5 -10.5l45 -524h17l45 524q0 6 5 10.5t11 4.5h123q6 0 11 -4.5t5 -10.5l45 -524h17l45 524q0 6 5 10.5t11 4.5h121q17 0 14 -17l-129 -1192q0 -6 -5 -10t-11 -4h-119q-6 0 -11 4t-5 10l-56 510l-55 -510q0 -6 -5 -10t-11 -4h-119 q-6 0 -11 4t-5 10z" />
<glyph unicode="x" horiz-adv-x="450" d="M20 16l127 586q3 10 0 21l-127 583q-3 17 13 17h121q12 0 16 -15l47 -274q1 -7 4.5 -9.5t7 0t4.5 9.5l48 274q4 15 16 15h121q15 0 12 -17l-127 -583q-3 -11 0 -21l127 -586q3 -16 -12 -16h-121q-13 0 -16 14l-48 275q-1 7 -4.5 9.5t-7 0t-4.5 -9.5l-47 -275 q-4 -14 -16 -14h-121q-16 0 -13 16z" />
<glyph unicode="y" horiz-adv-x="456" d="M27 1206q-3 17 12 17h119q13 0 16 -15l47 -274q1 -7 4.5 -10t7.5 -0.5t5 10.5l47 274q3 15 16 15h117q15 0 12 -17l-123 -569q-2 -8 -2 -19v-602q0 -6 -5 -11t-11 -5h-119q-6 0 -11 5t-5 11l-2 602q0 11 -2 19z" />
<glyph unicode="z" horiz-adv-x="411" d="M35 16v127q0 11 2 19l180 891q3 16 -12 16h-154q-6 0 -11 5t-5 11v121q0 6 5 11.5t11 5.5h309q6 0 11.5 -4.5t5.5 -10.5v-127q0 -10 -2 -18l-185 -893q-3 -16 15 -16h155q6 0 11.5 -5.5t5.5 -11.5v-121q0 -6 -4.5 -11t-10.5 -5h-311q-6 0 -11 5t-5 11z" />
<glyph unicode="{" horiz-adv-x="565" d="M-106 553v117q0 6 4 11t10 5q117 0 178 61.5t61 178.5v139q0 154 100.5 258t241.5 104h48q14 0 14 -14v-119q0 -6 -5 -11t-11 -5q-116 0 -177 -61.5t-61 -178.5v-159q0 -82 -32.5 -152t-90.5 -115q58 -46 90.5 -116t32.5 -152v-160q0 -117 61 -178t177 -61q6 0 11 -5.5 t5 -11.5v-118q0 -15 -14 -15h-48q-141 0 -241.5 104.5t-100.5 258.5v139q0 117 -61 178.5t-178 61.5q-6 0 -10 5t-4 11z" />
<glyph unicode="|" horiz-adv-x="282" d="M72 1399q0 11 7.5 19.5t20.5 8.5h80q12 0 20.5 -8.5t8.5 -19.5v-1551q0 -12 -8 -20t-21 -8h-78q-28 0 -28 28z" />
<glyph unicode="}" horiz-adv-x="565" d="M14 -72q0 6 5.5 11.5t11.5 5.5q116 0 176.5 61t60.5 178v160q0 82 32.5 152t90.5 116q-58 45 -90.5 115t-32.5 152v159q0 117 -60.5 178.5t-176.5 61.5q-6 0 -11.5 5t-5.5 11v119q0 14 15 14h47q141 0 241.5 -104t100.5 -258v-139q0 -117 61 -178.5t178 -61.5 q6 0 10.5 -5t4.5 -11v-117q0 -6 -4.5 -11t-10.5 -5q-117 0 -178 -61.5t-61 -178.5v-139q0 -154 -100.5 -258.5t-241.5 -104.5h-47q-6 0 -10.5 4.5t-4.5 10.5v118z" />
<glyph unicode="&#xa1;" horiz-adv-x="284" d="M66 1077v117q0 11 9 20t19 9h94q10 0 19.5 -9.5t9.5 -19.5v-117q0 -12 -9 -21t-20 -9h-94q-11 0 -19.5 9t-8.5 21zM74 29l2 936q0 28 28 28h78q13 0 21 -8t8 -20v-936q0 -11 -8.5 -20t-20.5 -9h-80q-13 0 -20.5 9t-7.5 20z" />
<glyph unicode="&#xa2;" horiz-adv-x="749" d="M33 608q0 499 229 606v197q0 6 5.5 11t11.5 5h192q6 0 11 -4t5 -10v-178q46 -9 82 -30t60 -46t40.5 -64t25.5 -72.5t13.5 -84t5.5 -86t1 -90.5q0 -9 -6 -15t-15 -6h-190q-9 0 -15 6t-6 15q0 45 -1 73t-4 58.5t-9.5 47.5t-17 32.5t-27 21.5t-39.5 6q-127 0 -127 -393 q0 -387 127 -387q23 0 39.5 6t27.5 21.5t17.5 32.5t9 48.5t3.5 58t1 73.5q0 20 21 20h190q21 0 21 -20q0 -55 -1 -90.5t-5.5 -86t-13.5 -84t-25.5 -72.5t-40.5 -64t-60 -46t-82 -30v-178q0 -15 -14 -15h-194q-6 0 -11.5 5.5t-5.5 11.5v196q-67 31 -114.5 96.5t-71 152.5 t-33.5 171.5t-10 179.5z" />
<glyph unicode="&#xa3;" horiz-adv-x="804" d="M35 20v189q0 20 20 20h17q44 0 68 24.5t24 68.5v221q0 20 -21 20h-92q-6 0 -11 5.5t-5 11.5v90q0 6 4 11t10 5h94q9 0 15 6t6 15v229q0 124 85.5 215.5t207.5 91.5q135 0 219 -86t90 -237q0 -9 -6 -15t-15 -6h-184q-20 0 -20 21q0 98 -72 98q-80 0 -80 -119v-192 q0 -9 6 -15t15 -6h219q14 0 14 -14v-92q0 -6 -5 -11.5t-11 -5.5h-217q-21 0 -21 -20v-221q0 -66 -31 -93h387q21 0 21 -20v-189q0 -20 -21 -20h-690q-20 0 -20 20z" />
<glyph unicode="&#xa4;" horiz-adv-x="987" d="M41 307l129 129q-25 88 -25 174q0 80 23 160l-127 127q-9 9 2 21l137 137q3 3 10.5 3.5t12.5 -3.5l84 -86q79 69 207 69q127 0 206 -69l84 86q5 4 12.5 3.5t10.5 -3.5l137 -137q4 -4 4.5 -11t-2.5 -10l-127 -127q23 -80 23 -160q0 -86 -25 -174l129 -129q9 -9 -2 -20 l-137 -137q-3 -3 -10.5 -3.5t-12.5 3.5l-84 86q-85 -72 -206 -72q-122 0 -207 72l-84 -86q-5 -4 -12.5 -3.5t-10.5 3.5l-137 137q-11 11 -2 20zM371 612q-1 -32 4.5 -70t18 -78.5t38.5 -67.5t62 -27t62 27t38.5 67.5t17.5 78.5t4 70q1 16 -4.5 49.5t-17.5 74.5t-38.5 70.5 t-61.5 29.5t-62 -29.5t-39 -70.5t-17.5 -74.5t-4.5 -49.5z" />
<glyph unicode="&#xa5;" horiz-adv-x="729" d="M33 1204q-6 19 12 19h195q13 0 16 -13l98 -292q2 -7 6 -9.5t8.5 0t6.5 9.5l98 292q3 13 16 13h195q18 0 12 -19l-215 -596q-4 -16 -4 -18v-6h178q6 0 10.5 -4.5t4.5 -10.5v-92q0 -6 -5.5 -11t-11.5 -5h-176v-82h178q15 0 15 -14v-93q0 -6 -5.5 -11t-11.5 -5h-176v-242 q0 -14 -14 -14h-195q-6 0 -11 5t-5 11v240h-174q-6 0 -11.5 5t-5.5 11v90q0 6 4.5 11.5t10.5 5.5h176v82h-174q-6 0 -11.5 5t-5.5 11v90q0 6 4.5 11.5t10.5 5.5h176v6q0 2 -4 18z" />
<glyph unicode="&#xa8;" horiz-adv-x="530" d="M49 1298v150q0 6 5.5 11t11.5 5h143q14 0 14 -14v-152q0 -6 -4 -11t-10 -5h-143q-6 0 -11.5 5t-5.5 11zM283 1298v150q0 6 5 11t11 5h143q15 0 15 -14v-152q0 -6 -4.5 -11t-10.5 -5h-143q-6 0 -11 5t-5 11z" />
<glyph unicode="&#xad;" horiz-adv-x="581" d="M49 532v97q0 20 21 20h442q20 0 20 -20v-97q0 -20 -20 -20h-442q-21 0 -21 20z" />
<glyph unicode="&#xaf;" horiz-adv-x="659" d="M49 1305v129q0 20 21 20h495q21 0 21 -20v-129q0 -9 -6 -15t-15 -6h-495q-9 0 -15 6t-6 15z" />
<glyph unicode="&#xb4;" horiz-adv-x="376" d="M51 1288q-4 6 2 17l82 147q6 12 23 12h129q11 0 14.5 -6t-2.5 -16l-82 -148q-8 -12 -22 -12h-129q-11 0 -15 6z" />
<glyph unicode="&#xb7;" horiz-adv-x="325" d="M51 526v144q0 17 12 29t29 12h141q17 0 29 -12t12 -29v-144q0 -17 -12 -29t-29 -12h-141q-17 0 -29 12t-12 29z" />
<glyph unicode="&#xb8;" horiz-adv-x="415" d="M55 -324l45 48q13 13 27 4q21 -13 39 -13q33 0 51.5 22.5t19 49.5t-18.5 49.5t-52 22.5q-13 0 -35 -11q-16 -9 -27 5l-45 49q-12 14 0 26l144 140q12 12 26 -5l45 -47q12 -14 0 -26l-24 -25q-14 -14 6 -26q56 -32 75 -88.5t4 -109t-61 -91.5t-108 -39q-42 0 -107 37 q-17 10 -4 28z" />
<glyph unicode="&#xbf;" horiz-adv-x="489" d="M31 326q0 84 21 150.5t50.5 105.5t59 70.5t50.5 63t21 64.5v205q0 9 6 15t15 6h102q9 0 15 -6t6 -15v-205q0 -45 -12 -81t-31 -60t-41.5 -46t-45.5 -45.5t-42 -52t-31 -71.5t-12 -98q0 -40 1 -61t5 -47t12 -38.5t23.5 -21t38.5 -8.5q53 0 68.5 40t15.5 156q0 21 20 21h88 q9 0 15 -6t6 -15q0 -187 -52.5 -276.5t-160.5 -89.5q-60 0 -101 23t-64.5 69.5t-33.5 107t-12 146.5zM236 1100v88q0 14 11.5 24.5t26.5 10.5h64q15 0 27 -11t12 -24v-88q0 -13 -12 -24t-27 -11h-64q-15 0 -26.5 10.5t-11.5 24.5z" />
<glyph unicode="&#xc0;" d="M23 23l174 1181q3 19 20 19h240q17 0 20 -19l182 -1181q2 -9 -3.5 -16t-14.5 -7h-188q-18 0 -21 18l-14 117q-3 19 -21 19h-110q-18 0 -21 -19l-18 -117q-3 -18 -21 -18h-186q-9 0 -14.5 7t-3.5 16zM149.5 1458q3.5 6 14.5 6h129q16 0 22 -12l82 -147q6 -11 2.5 -17 t-14.5 -6h-129q-15 0 -23 12l-81 148q-6 10 -2.5 16zM283 369q-1 -9 5 -16t15 -7h76q9 0 14.5 7t3.5 16l-45 313q-2 12 -12 12t-12 -12z" />
<glyph unicode="&#xc1;" d="M23 23l174 1181q3 19 20 19h240q17 0 20 -19l182 -1181q2 -9 -3.5 -16t-14.5 -7h-188q-18 0 -21 18l-14 117q-3 19 -21 19h-110q-18 0 -21 -19l-18 -117q-3 -18 -21 -18h-186q-9 0 -14.5 7t-3.5 16zM249.5 1288q-3.5 6 2.5 17l82 147q6 12 22 12h129q11 0 15 -6t-2 -16 l-82 -148q-8 -12 -23 -12h-129q-11 0 -14.5 6zM283 369q-1 -9 5 -16t15 -7h76q9 0 14.5 7t3.5 16l-45 313q-2 12 -12 12t-12 -12z" />
<glyph unicode="&#xc2;" d="M23 23l174 1181q3 19 20 19h240q17 0 20 -19l182 -1181q2 -9 -3.5 -16t-14.5 -7h-188q-18 0 -21 18l-14 117q-3 19 -21 19h-110q-18 0 -21 -19l-18 -117q-3 -18 -21 -18h-186q-9 0 -14.5 7t-3.5 16zM117 1289q-4 7 2 18l78 143q8 14 24 14h242q16 0 24 -14l78 -143 q6 -11 1.5 -18t-15.5 -7h-125q-17 0 -25 14l-45 82q-6 10 -14 10t-14 -10l-45 -82q-8 -14 -25 -14h-125q-12 0 -16 7zM283 369q-1 -9 5 -16t15 -7h76q9 0 14.5 7t3.5 16l-45 313q-2 12 -12 12t-12 -12z" />
<glyph unicode="&#xc3;" d="M23 23l174 1181q3 19 20 19h240q17 0 20 -19l182 -1181q2 -9 -3.5 -16t-14.5 -7h-188q-18 0 -21 18l-14 117q-3 19 -21 19h-110q-18 0 -21 -19l-18 -117q-3 -18 -21 -18h-186q-9 0 -14.5 7t-3.5 16zM68 1298q-16 134 84 191q61 37 132 19.5t107 -81.5q12 -21 33.5 -27 t44.5 5q30 15 27 59q-3 19 16 23l76 20q8 2 16 -2t8 -12q15 -133 -82 -190q-59 -37 -132 -19.5t-109 80.5q-10 22 -33 28t-43 -6q-32 -14 -29 -59q3 -18 -16 -22l-76 -21q-21 -4 -24 14zM283 369q-1 -9 5 -16t15 -7h76q9 0 14.5 7t3.5 16l-45 313q-2 12 -12 12t-12 -12z" />
<glyph unicode="&#xc4;" d="M23 23l174 1181q3 19 20 19h240q17 0 20 -19l182 -1181q2 -9 -3.5 -16t-14.5 -7h-188q-18 0 -21 18l-14 117q-3 19 -21 19h-110q-18 0 -21 -19l-18 -117q-3 -18 -21 -18h-186q-9 0 -14.5 7t-3.5 16zM131 1298v150q0 6 5 11t11 5h144q14 0 14 -14v-152q0 -6 -4 -11t-10 -5 h-144q-6 0 -11 5t-5 11zM283 369q-1 -9 5 -16t15 -7h76q9 0 14.5 7t3.5 16l-45 313q-2 12 -12 12t-12 -12zM365 1298v150q0 6 5 11t11 5h143q15 0 15 -14v-152q0 -6 -4.5 -11t-10.5 -5h-143q-6 0 -11 5t-5 11z" />
<glyph unicode="&#xc5;" d="M23 23l174 1181q3 19 20 19h240q17 0 20 -19l182 -1181q2 -9 -3.5 -16t-14.5 -7h-188q-18 0 -21 18l-14 117q-3 19 -21 19h-110q-18 0 -21 -19l-18 -117q-3 -18 -21 -18h-186q-9 0 -14.5 7t-3.5 16zM199 1421q0 59 41.5 100.5t99.5 41.5q60 0 101.5 -41.5t41.5 -100.5 q0 -60 -41.5 -101.5t-101.5 -41.5q-59 0 -100 41.5t-41 101.5zM274 1421q0 -29 20 -49t48 -20q29 0 48.5 20t19.5 49q0 28 -19.5 48t-48.5 20q-28 0 -48 -20t-20 -48zM283 369q-1 -9 5 -16t15 -7h76q9 0 14.5 7t3.5 16l-45 313q-2 12 -12 12t-12 -12z" />
<glyph unicode="&#xc6;" horiz-adv-x="1026" d="M-12 16l295 1194q3 13 18 13h649q6 0 10.5 -4.5t4.5 -10.5v-198q0 -6 -4.5 -11.5t-10.5 -5.5h-317q-15 0 -15 -14v-234q0 -6 5.5 -11t11.5 -5h315q15 0 15 -14v-199q0 -6 -4.5 -11t-10.5 -5h-317q-6 0 -10.5 -4.5t-4.5 -10.5v-241q0 -6 5.5 -10.5t11.5 -4.5h315 q15 0 15 -14v-199q0 -6 -4.5 -11t-10.5 -5h-542q-6 0 -11.5 5t-5.5 11v121q0 6 -4 11.5t-10 5.5h-115q-15 0 -18 -13l-31 -129q-2 -12 -18 -12h-193q-17 0 -14 16zM299 362q-3 -16 14 -16h62q6 0 11 5t5 11v306q0 8 -7.5 9.5t-8.5 -7.5z" />
<glyph unicode="&#xc7;" horiz-adv-x="770" d="M43 608q0 77 6 146t20.5 144t41.5 134.5t66 108t97.5 75.5t131.5 27q51 0 93 -9.5t73 -23.5t55 -39.5t40 -49.5t27.5 -61.5t17 -67t9 -75t4 -76.5t0.5 -79q0 -21 -20 -21h-191q-20 0 -20 21q0 54 -1.5 86.5t-7 65t-16 49.5t-29 27.5t-45.5 10.5q-127 0 -127 -393 q0 -387 127 -387q23 0 40 6t27.5 21.5t17 32.5t9.5 48t4 58.5t1 73.5q0 20 20 20h191q20 0 20 -20q0 -59 -1 -95t-6 -89t-15 -86.5t-29 -73.5t-45.5 -64t-67.5 -43.5t-94 -25.5l-18 -19q-14 -14 6 -26q56 -32 75 -88.5t4 -109t-61 -91.5t-108 -39q-42 0 -107 37 q-18 10 -4 28l45 48q13 13 27 4q21 -13 39 -13q43 0 61.5 36t0.5 72t-62 36q-13 0 -35 -11q-16 -9 -27 5l-45 49q-12 14 0 26l64 62q-82 21 -140 84.5t-86.5 155.5t-40.5 183t-12 195z" />
<glyph unicode="&#xc8;" horiz-adv-x="712" d="M82 20v1182q0 21 20 21h529q20 0 20 -21v-188q0 -21 -20 -21h-303q-21 0 -21 -20v-230q0 -20 21 -20h303q20 0 20 -21v-186q0 -20 -20 -20h-303q-21 0 -21 -21v-225q0 -9 6 -15t15 -6h303q20 0 20 -20v-189q0 -20 -20 -20h-529q-20 0 -20 20zM206.5 1458q3.5 6 14.5 6 h129q17 0 23 -12l82 -147q6 -11 2 -17t-15 -6h-129q-14 0 -22 12l-82 148q-6 10 -2.5 16z" />
<glyph unicode="&#xc9;" horiz-adv-x="712" d="M82 20v1182q0 21 20 21h529q20 0 20 -21v-188q0 -21 -20 -21h-303q-21 0 -21 -20v-230q0 -20 21 -20h303q20 0 20 -21v-186q0 -20 -20 -20h-303q-21 0 -21 -21v-225q0 -9 6 -15t15 -6h303q20 0 20 -20v-189q0 -20 -20 -20h-529q-20 0 -20 20zM251.5 1288q-3.5 6 2.5 17 l82 147q6 12 22 12h129q11 0 15 -6t-2 -16l-82 -148q-8 -12 -23 -12h-129q-11 0 -14.5 6z" />
<glyph unicode="&#xca;" horiz-adv-x="712" d="M82 20v1182q0 21 20 21h529q20 0 20 -21v-188q0 -21 -20 -21h-303q-21 0 -21 -20v-230q0 -20 21 -20h303q20 0 20 -21v-186q0 -20 -20 -20h-303q-21 0 -21 -21v-225q0 -9 6 -15t15 -6h303q20 0 20 -20v-189q0 -20 -20 -20h-529q-20 0 -20 20zM139 1300l84 154q7 10 19 10 h250q11 0 18 -10l84 -154q9 -18 -10 -18h-138q-11 0 -18 10l-51 94q-5 9 -11 9t-10 -9l-51 -94q-7 -10 -18 -10h-137q-20 0 -11 18z" />
<glyph unicode="&#xcb;" horiz-adv-x="712" d="M82 20v1182q0 21 20 21h529q20 0 20 -21v-188q0 -21 -20 -21h-303q-21 0 -21 -20v-230q0 -20 21 -20h303q20 0 20 -21v-186q0 -20 -20 -20h-303q-21 0 -21 -21v-225q0 -9 6 -15t15 -6h303q20 0 20 -20v-189q0 -20 -20 -20h-529q-20 0 -20 20zM160 1298v150q0 6 5 11t11 5 h143q15 0 15 -14v-152q0 -6 -4.5 -11t-10.5 -5h-143q-6 0 -11 5t-5 11zM393 1298v150q0 6 5.5 11t11.5 5h143q14 0 14 -14v-152q0 -6 -4 -11t-10 -5h-143q-6 0 -11.5 5t-5.5 11z" />
<glyph unicode="&#xcc;" horiz-adv-x="389" d="M12 1458q4 6 15 6h149q17 0 23 -12l82 -147q6 -11 2 -17t-15 -6h-149q-15 0 -23 12l-82 148q-6 10 -2 16zM82 16v1190q0 6 5 11.5t11 5.5h193q6 0 11 -4.5t5 -10.5v-1194q0 -14 -14 -14h-195q-6 0 -11 5t-5 11z" />
<glyph unicode="&#xcd;" horiz-adv-x="389" d="M82 14v1194q0 6 5 10.5t11 4.5h193q6 0 11 -5.5t5 -11.5v-1190q0 -6 -5 -11t-11 -5h-195q-14 0 -14 14zM106.5 1288q-3.5 6 2.5 17l81 147q6 12 23 12h149q11 0 15 -6t-2 -16l-82 -148q-8 -12 -23 -12h-149q-11 0 -14.5 6z" />
<glyph unicode="&#xce;" horiz-adv-x="389" d="M-51.5 1288q-3.5 6 2.5 17l82 147q6 12 22 12h283q16 0 22 -12l82 -147q6 -11 2.5 -17t-14.5 -6h-149q-15 0 -23 12l-61 111l-62 -111q-8 -12 -22 -12h-150q-11 0 -14.5 6zM82 16v1190q0 6 5 11.5t11 5.5h193q6 0 11 -4.5t5 -10.5v-1194q0 -14 -14 -14h-195q-6 0 -11 5 t-5 11z" />
<glyph unicode="&#xcf;" horiz-adv-x="389" d="M-10 1298v150q0 6 5 11t11 5h144q14 0 14 -14v-152q0 -6 -4 -11t-10 -5h-144q-6 0 -11 5t-5 11zM82 16v1190q0 6 5 11.5t11 5.5h193q6 0 11 -4.5t5 -10.5v-1194q0 -14 -14 -14h-195q-6 0 -11 5t-5 11zM223 1298v150q0 6 5.5 11t11.5 5h143q14 0 14 -14v-152q0 -6 -4 -11 t-10 -5h-143q-6 0 -11.5 5t-5.5 11z" />
<glyph unicode="&#xd0;" horiz-adv-x="759" d="M-10 633q0 16 18 16h90v553q0 9 6 15t15 6h162q19 0 38 -1.5t65.5 -13.5t86 -33t87 -66.5t81 -107.5t56 -162.5t22.5 -224.5q0 -99 -14 -182.5t-36 -142.5t-54 -107t-63 -77t-69.5 -50.5t-66.5 -31.5t-61 -16t-45.5 -6.5t-26.5 -0.5h-162q-21 0 -21 20v551h-92 q-5 0 -9.5 6t-4.5 13zM324 229q0 -24 22 -18q17 7 32.5 18.5t37 41.5t37.5 71t27 112t12 160q0 83 -11 149.5t-27 105.5t-37.5 66.5t-37.5 38.5t-33 17q-22 6 -22 -18v-326h82q16 0 16 -18l2 -43q0 -17 -18 -17h-82v-340z" />
<glyph unicode="&#xd1;" horiz-adv-x="802" d="M82 16v1192q0 6 5 10.5t11 4.5h197q13 0 16 -13l168 -495q2 -6 6 -8t7.5 0.5t3.5 9.5v491q0 6 5 10.5t11 4.5h193q6 0 11 -4.5t5 -10.5v-1194q0 -14 -14 -14h-199q-13 0 -16 12l-168 490q-2 6 -6 8t-7.5 -0.5t-3.5 -9.5v-484q0 -6 -4 -11t-10 -5h-195q-6 0 -11 5t-5 11z M129 1298q-16 134 84 191q61 37 132.5 19.5t107.5 -81.5q25 -45 77 -22q30 15 27 59q-3 19 16 23l76 20q9 2 17 -2t8 -12q15 -133 -82 -190q-59 -37 -132.5 -19.5t-109.5 80.5q-10 22 -33 28t-43 -6q-31 -14 -28 -59q3 -18 -17 -22l-75 -21q-22 -4 -25 14z" />
<glyph unicode="&#xd2;" horiz-adv-x="782" d="M43 610q0 51 3 102t12.5 115.5t24.5 120.5t42 112t62.5 95t88 63.5t115.5 24.5t115.5 -24.5t88 -63.5t62.5 -95t42 -112t24.5 -120.5t12.5 -115.5t3 -102t-3 -101.5t-12.5 -115t-24.5 -120.5t-42 -111t-62.5 -94t-88 -63.5t-115.5 -24.5t-115.5 24.5t-88 63.5t-62.5 94 t-42 111t-24.5 120.5t-12.5 115t-3 101.5zM221 1458q4 6 15 6h129q16 0 22 -12l82 -147q6 -11 2.5 -17t-14.5 -6h-129q-15 0 -23 12l-82 148q-6 10 -2 16zM268 610q-1 -24 2 -83t12.5 -141.5t38 -143t70.5 -60.5t70.5 60.5t38 143t12.5 141.5t2 83q1 24 -2 83t-12.5 141.5 t-38 143t-70.5 60.5t-70.5 -60.5t-38 -143t-12.5 -141.5t-2 -83z" />
<glyph unicode="&#xd3;" horiz-adv-x="782" d="M43 610q0 51 3 102t12.5 115.5t24.5 120.5t42 112t62.5 95t88 63.5t115.5 24.5t115.5 -24.5t88 -63.5t62.5 -95t42 -112t24.5 -120.5t12.5 -115.5t3 -102t-3 -101.5t-12.5 -115t-24.5 -120.5t-42 -111t-62.5 -94t-88 -63.5t-115.5 -24.5t-115.5 24.5t-88 63.5t-62.5 94 t-42 111t-24.5 120.5t-12.5 115t-3 101.5zM268 610q-1 -24 2 -83t12.5 -141.5t38 -143t70.5 -60.5t70.5 60.5t38 143t12.5 141.5t2 83q1 24 -2 83t-12.5 141.5t-38 143t-70.5 60.5t-70.5 -60.5t-38 -143t-12.5 -141.5t-2 -83zM311 1288q-4 6 2 17l82 147q6 12 23 12h129 q11 0 14.5 -6t-2.5 -16l-82 -148q-8 -12 -22 -12h-129q-11 0 -15 6z" />
<glyph unicode="&#xd4;" horiz-adv-x="782" d="M43 610q0 51 3 102t12.5 115.5t24.5 120.5t42 112t62.5 95t88 63.5t115.5 24.5t115.5 -24.5t88 -63.5t62.5 -95t42 -112t24.5 -120.5t12.5 -115.5t3 -102t-3 -101.5t-12.5 -115t-24.5 -120.5t-42 -111t-62.5 -94t-88 -63.5t-115.5 -24.5t-115.5 24.5t-88 63.5t-62.5 94 t-42 111t-24.5 120.5t-12.5 115t-3 101.5zM164 1300l84 154q7 10 18 10h250q12 0 19 -10l83 -154q9 -18 -10 -18h-137q-11 0 -18 10l-52 94q-10 20 -20 0l-51 -94q-7 -10 -19 -10h-137q-19 0 -10 18zM268 610q-1 -24 2 -83t12.5 -141.5t38 -143t70.5 -60.5t70.5 60.5t38 143 t12.5 141.5t2 83q1 24 -2 83t-12.5 141.5t-38 143t-70.5 60.5t-70.5 -60.5t-38 -143t-12.5 -141.5t-2 -83z" />
<glyph unicode="&#xd5;" horiz-adv-x="782" d="M43 610q0 51 3 102t12.5 115.5t24.5 120.5t42 112t62.5 95t88 63.5t115.5 24.5t115.5 -24.5t88 -63.5t62.5 -95t42 -112t24.5 -120.5t12.5 -115.5t3 -102t-3 -101.5t-12.5 -115t-24.5 -120.5t-42 -111t-62.5 -94t-88 -63.5t-115.5 -24.5t-115.5 24.5t-88 63.5t-62.5 94 t-42 111t-24.5 120.5t-12.5 115t-3 101.5zM119 1298q-16 134 84 191q61 37 132 19.5t107 -81.5q12 -21 33.5 -27t44.5 5q30 15 27 59q-3 19 16 23l76 20q9 2 17 -2t8 -12q15 -133 -82 -190q-59 -37 -132.5 -19.5t-109.5 80.5q-10 22 -33 28t-43 -6q-31 -14 -28 -59 q3 -18 -17 -22l-76 -21q-21 -4 -24 14zM268 610q-1 -24 2 -83t12.5 -141.5t38 -143t70.5 -60.5t70.5 60.5t38 143t12.5 141.5t2 83q1 24 -2 83t-12.5 141.5t-38 143t-70.5 60.5t-70.5 -60.5t-38 -143t-12.5 -141.5t-2 -83z" />
<glyph unicode="&#xd6;" horiz-adv-x="782" d="M43 610q0 51 3 102t12.5 115.5t24.5 120.5t42 112t62.5 95t88 63.5t115.5 24.5t115.5 -24.5t88 -63.5t62.5 -95t42 -112t24.5 -120.5t12.5 -115.5t3 -102t-3 -101.5t-12.5 -115t-24.5 -120.5t-42 -111t-62.5 -94t-88 -63.5t-115.5 -24.5t-115.5 24.5t-88 63.5t-62.5 94 t-42 111t-24.5 120.5t-12.5 115t-3 101.5zM190 1298v150q0 6 5.5 11t11.5 5h143q15 0 15 -14v-152q0 -6 -4.5 -11t-10.5 -5h-143q-6 0 -11.5 5t-5.5 11zM268 610q-1 -24 2 -83t12.5 -141.5t38 -143t70.5 -60.5t70.5 60.5t38 143t12.5 141.5t2 83q1 24 -2 83t-12.5 141.5 t-38 143t-70.5 60.5t-70.5 -60.5t-38 -143t-12.5 -141.5t-2 -83zM424 1298v150q0 6 5 11t11 5h144q14 0 14 -14v-152q0 -6 -4 -11t-10 -5h-144q-6 0 -11 5t-5 11z" />
<glyph unicode="&#xd7;" horiz-adv-x="960" d="M123 412l199 198l-199 197q-7 11 0 22l137 138q14 9 23 0l196 -199l199 199q10 10 20 0l138 -138q11 -11 0 -22l-197 -199l197 -196q4 -3 4 -9.5t-4 -9.5l-138 -139q-11 -7 -22 0l-197 197l-194 -197q-5 -3 -12.5 -3t-10.5 3l-137 137q-11 11 -2 21z" />
<glyph unicode="&#xd8;" horiz-adv-x="790" d="M41 51l76 137q-70 166 -70 422q0 51 3 102t12.5 115.5t24.5 120.5t42 112t62.5 95t88 63.5t115.5 24.5q149 0 238 -131l51 92q8 15 23 6l36 -20q14 -9 7 -23l-76 -135q69 -166 69 -422q0 -51 -3 -101.5t-12.5 -115t-24.5 -120.5t-42 -111t-62.5 -94t-88 -63.5 t-115.5 -24.5q-147 0 -235 129l-51 -95q-7 -14 -23 -6l-39 21q-13 8 -6 22zM272 610q0 -67 4 -137l222 397q-30 168 -103 168q-42 0 -70.5 -60.5t-38 -143t-12.5 -141.5t-2 -83zM293 346q34 -164 102 -164q42 0 70.5 60.5t38 143t12.5 141.5t2 83q0 65 -4 133z" />
<glyph unicode="&#xd9;" horiz-adv-x="749" d="M78 276v930q0 6 5 11.5t11 5.5h195q14 0 14 -15v-929q0 -30 21 -54t51 -24t50.5 24t20.5 54v929q0 6 4.5 10.5t10.5 4.5h194q6 0 11.5 -5.5t5.5 -11.5v-930q0 -127 -85 -214t-212 -87t-212 87t-85 214zM247.5 1458q3.5 6 14.5 6h129q17 0 23 -12l82 -147q6 -11 2 -17 t-15 -6h-129q-14 0 -22 12l-82 148q-6 10 -2.5 16z" />
<glyph unicode="&#xda;" horiz-adv-x="749" d="M78 276v930q0 6 5 11.5t11 5.5h195q14 0 14 -15v-929q0 -30 21 -54t51 -24t50.5 24t20.5 54v929q0 6 4.5 10.5t10.5 4.5h194q6 0 11.5 -5.5t5.5 -11.5v-930q0 -127 -85 -214t-212 -87t-212 87t-85 214zM294.5 1288q-3.5 6 2.5 17l82 147q6 12 22 12h129q11 0 15 -6 t-2 -16l-82 -148q-8 -12 -23 -12h-129q-11 0 -14.5 6z" />
<glyph unicode="&#xdb;" horiz-adv-x="749" d="M78 276v930q0 6 5 11.5t11 5.5h195q14 0 14 -15v-929q0 -30 21 -54t51 -24t50.5 24t20.5 54v929q0 6 4.5 10.5t10.5 4.5h194q6 0 11.5 -5.5t5.5 -11.5v-930q0 -127 -85 -214t-212 -87t-212 87t-85 214zM147 1300l84 154q7 10 19 10h250q11 0 18 -10l84 -154 q9 -18 -10 -18h-137q-12 0 -19 10l-51 94q-10 20 -20 0l-52 -94q-7 -10 -18 -10h-137q-20 0 -11 18z" />
<glyph unicode="&#xdc;" horiz-adv-x="749" d="M78 276v930q0 6 5 11.5t11 5.5h195q14 0 14 -15v-929q0 -30 21 -54t51 -24t50.5 24t20.5 54v929q0 6 4.5 10.5t10.5 4.5h194q6 0 11.5 -5.5t5.5 -11.5v-930q0 -127 -85 -214t-212 -87t-212 87t-85 214zM166 1298v150q0 6 5 11t11 5h144q14 0 14 -14v-152q0 -6 -4 -11 t-10 -5h-144q-6 0 -11 5t-5 11zM399 1298v150q0 6 5.5 11t11.5 5h143q14 0 14 -14v-152q0 -6 -4 -11t-10 -5h-143q-6 0 -11.5 5t-5.5 11z" />
<glyph unicode="&#xdd;" horiz-adv-x="684" d="M10 1204q-6 19 13 19h194q13 0 16 -13l99 -292q2 -7 6 -9.5t8 0t6 9.5l99 292q3 13 16 13h195q18 0 12 -19l-215 -596q-4 -16 -4 -18v-576q0 -14 -15 -14h-194q-6 0 -11.5 5t-5.5 11v574q0 2 -4 18zM255.5 1288q-3.5 6 2.5 17l82 147q6 12 22 12h130q11 0 14.5 -6 t-2.5 -16l-82 -148q-8 -12 -23 -12h-129q-11 0 -14.5 6z" />
<glyph unicode="&#xde;" horiz-adv-x="686" d="M82 16v1192q0 6 5 10.5t11 4.5h160q6 0 11 -4.5t5 -10.5v-168q0 -14 17 -14h32.5t42.5 -3.5t52 -10t53.5 -21t54.5 -34t47.5 -51.5t41 -72t26 -97t10.5 -125t-10.5 -125t-26 -97t-41 -72t-47.5 -51.5t-55 -33.5t-53.5 -20.5t-52 -10t-42 -3.5h-32.5q-17 0 -17 -15v-168 q0 -6 -4 -11t-10 -5h-162q-6 0 -11 5t-5 11zM291 424q0 -16 14 -16q15 0 30 2.5t36.5 14t36.5 31t26.5 57.5t11.5 89t-11.5 89t-27 57.5t-36.5 31.5t-36 14.5t-30 2.5q-14 0 -14 -17v-356z" />
<glyph unicode="&#xdf;" horiz-adv-x="763" d="M66 20v1182q0 21 20 21h383q86 0 147.5 -61.5t61.5 -147.5v-357q0 -47 -21 -90q74 -77 74 -182v-115q0 -130 -77 -198t-246 -72q-21 0 -21 20v168q0 21 21 21q45 4 72.5 27.5t27.5 54.5v76q0 43 -25.5 61t-76.5 21q-21 0 -21 20v182q0 20 21 23q37 4 55 25.5t18 52.5v196 q0 32 -24 56t-56 24h-88q-20 0 -20 -20v-988q0 -20 -21 -20h-184q-20 0 -20 20z" />
<glyph unicode="&#xe0;" horiz-adv-x="501" d="M18 16l156 1192q4 15 16 15h121q13 0 17 -15l155 -1192q3 -16 -14 -16h-129q-6 0 -11 4t-5 10l-15 131q0 6 -5 10.5t-11 4.5h-84q-6 0 -11 -4.5t-5 -10.5l-15 -131q0 -6 -5 -10t-11 -4h-129q-18 0 -15 16zM69.5 1458q3.5 6 14.5 6h129q17 0 23 -12l81 -147q6 -11 2.5 -17 t-14.5 -6h-129q-14 0 -22 12l-82 148q-6 10 -2.5 16zM217 326q-3 -17 14 -17h41q18 0 15 17l-27 215q-2 9 -8 9t-8 -9z" />
<glyph unicode="&#xe1;" horiz-adv-x="501" d="M18 16l156 1192q4 15 16 15h121q13 0 17 -15l155 -1192q3 -16 -14 -16h-129q-6 0 -11 4t-5 10l-15 131q0 6 -5 10.5t-11 4.5h-84q-6 0 -11 -4.5t-5 -10.5l-15 -131q0 -6 -5 -10t-11 -4h-129q-18 0 -15 16zM180 1288q-4 6 2 17l82 147q6 12 23 12h129q11 0 14.5 -6 t-2.5 -16l-82 -148q-8 -12 -22 -12h-129q-11 0 -15 6zM217 326q-3 -17 14 -17h41q18 0 15 17l-27 215q-2 9 -8 9t-8 -9z" />
<glyph unicode="&#xe2;" horiz-adv-x="501" d="M18 16l156 1192q4 15 16 15h121q13 0 17 -15l155 -1192q3 -16 -14 -16h-129q-6 0 -11 4t-5 10l-15 131q0 6 -5 10.5t-11 4.5h-84q-6 0 -11 -4.5t-5 -10.5l-15 -131q0 -6 -5 -10t-11 -4h-129q-18 0 -15 16zM25 1300l84 154q7 10 18 10h250q11 0 18 -10l84 -154 q9 -18 -10 -18h-137q-12 0 -19 10l-51 94q-10 20 -20 0l-52 -94q-7 -10 -18 -10h-137q-19 0 -10 18zM217 326q-3 -17 14 -17h41q18 0 15 17l-27 215q-2 9 -8 9t-8 -9z" />
<glyph unicode="&#xe3;" horiz-adv-x="501" d="M-20 1298q-21 129 83 191q61 37 132.5 19.5t107.5 -81.5q12 -21 33.5 -27t44.5 5q33 16 27 59q-3 19 16 23l76 20q21 4 24 -14q21 -130 -82 -190q-59 -37 -133.5 -20t-107.5 81q-10 22 -33 28t-43 -6q-35 -16 -29 -59q3 -18 -16 -22l-76 -21q-21 -4 -24 14zM18 16 l156 1192q4 15 16 15h121q13 0 17 -15l155 -1192q3 -16 -14 -16h-129q-6 0 -11 4t-5 10l-15 131q0 6 -5 10.5t-11 4.5h-84q-6 0 -11 -4.5t-5 -10.5l-15 -131q0 -6 -5 -10t-11 -4h-129q-18 0 -15 16zM217 326q-3 -17 14 -17h41q18 0 15 17l-27 215q-2 9 -8 9t-8 -9z" />
<glyph unicode="&#xe4;" horiz-adv-x="501" d="M18 16l156 1192q4 15 16 15h121q13 0 17 -15l155 -1192q3 -16 -14 -16h-129q-6 0 -11 4t-5 10l-15 131q0 6 -5 10.5t-11 4.5h-84q-6 0 -11 -4.5t-5 -10.5l-15 -131q0 -6 -5 -10t-11 -4h-129q-18 0 -15 16zM43 1298v150q0 6 5 11t11 5h144q14 0 14 -14v-152q0 -6 -4 -11 t-10 -5h-144q-6 0 -11 5t-5 11zM217 326q-3 -17 14 -17h41q18 0 15 17l-27 215q-2 9 -8 9t-8 -9zM276 1298v150q0 6 5.5 11t11.5 5h143q15 0 15 -14v-152q0 -6 -4.5 -11t-10.5 -5h-143q-6 0 -11.5 5t-5.5 11z" />
<glyph unicode="&#xe5;" horiz-adv-x="501" d="M18 16l156 1192q4 15 16 15h121q13 0 17 -15l155 -1192q3 -16 -14 -16h-129q-6 0 -11 4t-5 10l-15 131q0 6 -5 10.5t-11 4.5h-84q-6 0 -11 -4.5t-5 -10.5l-15 -131q0 -6 -5 -10t-11 -4h-129q-18 0 -15 16zM109 1421q0 59 41.5 100.5t99.5 41.5q60 0 101.5 -41.5 t41.5 -100.5q0 -60 -41.5 -101.5t-101.5 -41.5q-59 0 -100 41.5t-41 101.5zM184 1421q0 -29 20 -49t48 -20q29 0 48 20t19 49q0 28 -19 48t-48 20q-28 0 -48 -20t-20 -48zM217 326q-3 -17 14 -17h41q18 0 15 17l-27 215q-2 9 -8 9t-8 -9z" />
<glyph unicode="&#xe6;" horiz-adv-x="694" d="M2 16l274 1192q3 15 19 15h346q6 0 11 -4.5t5 -10.5v-121q0 -6 -4 -11t-10 -5h-162q-14 0 -14 -14v-430q0 -6 5 -11.5t11 -5.5h119q6 0 11 -4t5 -10v-121q0 -6 -4 -11t-10 -5h-121q-6 0 -11 -4.5t-5 -10.5v-276q0 -6 5 -11t11 -5h158q6 0 11 -4.5t5 -10.5v-121 q0 -6 -4 -11t-10 -5h-317q-6 0 -11.5 5t-5.5 11v127q0 6 -4 11.5t-10 5.5h-80q-15 0 -18 -13l-35 -135q-2 -12 -19 -12h-129q-15 0 -12 16zM227 328q-3 -17 13 -17h59q6 0 10 5.5t4 11.5v307q0 6 -7.5 7.5t-8.5 -5.5z" />
<glyph unicode="&#xe7;" horiz-adv-x="514" d="M57 190v842q0 87 59 149t148 62t148 -62t59 -149v-225q0 -6 -5 -10t-11 -4h-117q-6 0 -11 4t-5 10v221q0 23 -17.5 40t-40.5 17t-40 -17t-17 -40v-833q0 -23 17 -40.5t40 -17.5t40.5 17.5t17.5 40.5v221q0 6 5 10t11 4h117q6 0 11 -4t5 -10v-226q0 -68 -38.5 -123 t-102.5 -77l-25 -25q-14 -14 6 -26q56 -32 75 -88.5t4 -109t-61 -91.5t-108 -39q-20 0 -40 6t-31 11.5t-35 19.5q-17 10 -4 28l45 48q12 12 26 4q21 -13 39 -13q33 0 51.5 22.5t19 49.5t-18.5 49.5t-52 22.5q-13 0 -35 -11q-15 -9 -26 5l-45 49q-12 14 0 26l69 68 q-58 23 -92.5 76t-34.5 118z" />
<glyph unicode="&#xe8;" horiz-adv-x="444" d="M66 14v1194q0 6 5 10.5t11 4.5h309q6 0 11.5 -4.5t5.5 -10.5v-118q0 -6 -4.5 -11.5t-10.5 -5.5h-160q-14 0 -14 -14v-428q0 -6 4 -11.5t10 -5.5h119q6 0 11.5 -4t5.5 -10v-121q0 -14 -15 -14h-121q-6 0 -10 -5t-4 -11v-285q0 -14 14 -14h160q6 0 10.5 -5.5t4.5 -11.5 v-119q0 -6 -5.5 -10t-11.5 -4h-309q-6 0 -11 4t-5 10zM67.5 1458q3.5 6 14.5 6h129q16 0 22 -12l82 -147q6 -11 2.5 -17t-14.5 -6h-129q-14 0 -22 12l-82 148q-6 10 -2.5 16z" />
<glyph unicode="&#xe9;" horiz-adv-x="444" d="M66 14v1194q0 6 5 10.5t11 4.5h309q6 0 11.5 -4.5t5.5 -10.5v-118q0 -6 -4.5 -11.5t-10.5 -5.5h-160q-14 0 -14 -14v-428q0 -6 4 -11.5t10 -5.5h119q6 0 11.5 -4t5.5 -10v-121q0 -14 -15 -14h-121q-6 0 -10 -5t-4 -11v-285q0 -14 14 -14h160q6 0 10.5 -5.5t4.5 -11.5 v-119q0 -6 -5.5 -10t-11.5 -4h-309q-6 0 -11 4t-5 10zM155.5 1288q-3.5 6 2.5 17l82 147q6 12 22 12h129q11 0 14.5 -6t-2.5 -16l-81 -148q-8 -12 -23 -12h-129q-11 0 -14.5 6z" />
<glyph unicode="&#xea;" horiz-adv-x="444" d="M10 1300l84 154q7 10 19 10h249q12 0 19 -10l84 -154q9 -18 -10 -18h-138q-11 0 -18 10l-51 94q-4 9 -10 9t-11 -9l-51 -94q-7 -10 -18 -10h-138q-19 0 -10 18zM66 14v1194q0 6 5 10.5t11 4.5h309q6 0 11.5 -4.5t5.5 -10.5v-118q0 -6 -4.5 -11.5t-10.5 -5.5h-160 q-14 0 -14 -14v-428q0 -6 4 -11.5t10 -5.5h119q6 0 11.5 -4t5.5 -10v-121q0 -14 -15 -14h-121q-6 0 -10 -5t-4 -11v-285q0 -14 14 -14h160q6 0 10.5 -5.5t4.5 -11.5v-119q0 -6 -5.5 -10t-11.5 -4h-309q-6 0 -11 4t-5 10z" />
<glyph unicode="&#xeb;" horiz-adv-x="444" d="M33 1298v150q0 6 5 11t11 5h144q14 0 14 -14v-152q0 -6 -4 -11t-10 -5h-144q-6 0 -11 5t-5 11zM66 14v1194q0 6 5 10.5t11 4.5h309q6 0 11.5 -4.5t5.5 -10.5v-118q0 -6 -4.5 -11.5t-10.5 -5.5h-160q-14 0 -14 -14v-428q0 -6 4 -11.5t10 -5.5h119q6 0 11.5 -4t5.5 -10 v-121q0 -14 -15 -14h-121q-6 0 -10 -5t-4 -11v-285q0 -14 14 -14h160q6 0 10.5 -5.5t4.5 -11.5v-119q0 -6 -5.5 -10t-11.5 -4h-309q-6 0 -11 4t-5 10zM266 1298v150q0 6 5.5 11t11.5 5h143q14 0 14 -14v-152q0 -6 -4 -11t-10 -5h-143q-6 0 -11.5 5t-5.5 11z" />
<glyph unicode="&#xec;" horiz-adv-x="280" d="M-37.5 1458q3.5 6 14.5 6h129q17 0 23 -12l82 -147q6 -11 2.5 -17t-14.5 -6h-129q-15 0 -23 12l-82 148q-6 10 -2.5 16zM66 16v1192q0 6 5 10.5t11 4.5h117q6 0 11 -4.5t5 -10.5v-1194q0 -14 -14 -14h-119q-6 0 -11 5t-5 11z" />
<glyph unicode="&#xed;" horiz-adv-x="280" d="M66 14v1194q0 6 5 10.5t11 4.5h117q6 0 11 -4.5t5 -10.5v-1192q0 -6 -5 -11t-11 -5h-119q-14 0 -14 14zM67.5 1288q-3.5 6 2.5 17l82 147q6 12 22 12h129q11 0 14.5 -6t-2.5 -16l-82 -148q-8 -12 -22 -12h-129q-11 0 -14.5 6z" />
<glyph unicode="&#xee;" horiz-adv-x="280" d="M-86 1300l84 154q7 10 18 10h250q12 0 19 -10l84 -154q9 -18 -11 -18h-137q-11 0 -18 10l-51 94q-4 9 -10 9t-11 -9l-51 -94q-7 -10 -19 -10h-137q-19 0 -10 18zM66 16v1192q0 6 5 10.5t11 4.5h117q6 0 11 -4.5t5 -10.5v-1194q0 -14 -14 -14h-119q-6 0 -11 5t-5 11z" />
<glyph unicode="&#xef;" horiz-adv-x="280" d="M-63 1298v150q0 6 5 11t11 5h143q15 0 15 -14v-152q0 -6 -4.5 -11t-10.5 -5h-143q-6 0 -11 5t-5 11zM66 16v1192q0 6 5 10.5t11 4.5h117q6 0 11 -4.5t5 -10.5v-1194q0 -14 -14 -14h-119q-6 0 -11 5t-5 11zM170 1298v150q0 6 5 11t11 5h144q14 0 14 -14v-152q0 -6 -4 -11 t-10 -5h-144q-6 0 -11 5t-5 11z" />
<glyph unicode="&#xf0;" horiz-adv-x="548" d="M6 633q0 16 19 16h49v553q0 21 20 21h209q78 0 133.5 -55.5t55.5 -133.5v-846q0 -78 -55.5 -133t-133.5 -55h-209q-20 0 -20 20v551h-51q-5 0 -10 6t-5 13zM229 158q0 -9 6 -15t15 -6h31q61 0 61 60v829q0 59 -61 59h-31q-21 0 -21 -20v-418h50q16 0 16 -18l2 -43 q0 -17 -18 -17h-50v-411z" />
<glyph unicode="&#xf1;" horiz-adv-x="544" d="M0 1298q-21 128 84 191q61 37 132.5 19.5t107.5 -81.5q25 -45 77 -22q33 16 27 59q-3 19 16 23l76 20q22 4 25 -14q21 -130 -82 -190q-59 -37 -134 -20t-108 81q-10 22 -33 28t-43 -6q-34 -15 -28 -59q3 -18 -17 -22l-75 -21q-22 -4 -25 14zM66 16v1192q0 6 5 10.5 t11 4.5h119q13 0 16 -15l96 -442q1 -6 9 -5t8 7v440q0 6 5 10.5t11 4.5h117q6 0 11 -4.5t5 -10.5v-1192q0 -6 -4 -11t-10 -5h-121q-13 0 -16 14l-97 435q-1 7 -8.5 5t-7.5 -8v-430q0 -6 -4 -11t-10 -5h-119q-6 0 -11 5t-5 11z" />
<glyph unicode="&#xf2;" horiz-adv-x="528" d="M57 186v850q0 86 60.5 146.5t146.5 60.5t146.5 -60.5t60.5 -146.5v-850q0 -86 -60.5 -146t-146.5 -60t-146.5 60t-60.5 146zM83.5 1458q3.5 6 14.5 6h129q17 0 23 -12l82 -147q6 -11 2 -17t-15 -6h-129q-14 0 -22 12l-82 148q-6 10 -2.5 16zM207 197q0 -25 16.5 -41.5 t40.5 -16.5t41 17t17 41v839q0 23 -17.5 40.5t-40.5 17.5t-40 -17.5t-17 -40.5v-839z" />
<glyph unicode="&#xf3;" horiz-adv-x="528" d="M57 186v850q0 86 60.5 146.5t146.5 60.5t146.5 -60.5t60.5 -146.5v-850q0 -86 -60.5 -146t-146.5 -60t-146.5 60t-60.5 146zM194.5 1288q-3.5 6 2.5 17l82 147q6 12 22 12h129q11 0 14.5 -6t-2.5 -16l-82 -148q-8 -12 -22 -12h-129q-11 0 -14.5 6zM207 197 q0 -25 16.5 -41.5t40.5 -16.5t41 17t17 41v839q0 23 -17.5 40.5t-40.5 17.5t-40 -17.5t-17 -40.5v-839z" />
<glyph unicode="&#xf4;" horiz-adv-x="528" d="M37 1300l84 154q7 10 18 10h250q12 0 19 -10l84 -154q9 -18 -11 -18h-137q-11 0 -18 10l-52 94q-10 20 -20 0l-51 -94q-7 -10 -19 -10h-137q-19 0 -10 18zM57 186v850q0 86 60.5 146.5t146.5 60.5t146.5 -60.5t60.5 -146.5v-850q0 -86 -60.5 -146t-146.5 -60t-146.5 60 t-60.5 146zM207 197q0 -25 16.5 -41.5t40.5 -16.5t41 17t17 41v839q0 23 -17.5 40.5t-40.5 17.5t-40 -17.5t-17 -40.5v-839z" />
<glyph unicode="&#xf5;" horiz-adv-x="528" d="M-10 1298q-21 128 84 191q61 37 132 19.5t107 -81.5q12 -21 33.5 -27t44.5 5q33 16 27 59q-3 19 16 23l76 20q22 4 25 -14q21 -130 -82 -190q-59 -37 -134 -20t-108 81q-10 22 -33 28t-43 -6q-35 -16 -29 -59q3 -18 -16 -22l-76 -21q-21 -4 -24 14zM57 186v850 q0 86 60.5 146.5t146.5 60.5t146.5 -60.5t60.5 -146.5v-850q0 -86 -60.5 -146t-146.5 -60t-146.5 60t-60.5 146zM207 197q0 -25 16.5 -41.5t40.5 -16.5t41 17t17 41v839q0 23 -17.5 40.5t-40.5 17.5t-40 -17.5t-17 -40.5v-839z" />
<glyph unicode="&#xf6;" horiz-adv-x="528" d="M57 186v850q0 86 60.5 146.5t146.5 60.5t146.5 -60.5t60.5 -146.5v-850q0 -86 -60.5 -146t-146.5 -60t-146.5 60t-60.5 146zM63 1298v150q0 6 5.5 11t11.5 5h143q15 0 15 -14v-152q0 -6 -4.5 -11t-10.5 -5h-143q-6 0 -11.5 5t-5.5 11zM207 197q0 -25 16.5 -41.5 t40.5 -16.5t41 17t17 41v839q0 23 -17.5 40.5t-40.5 17.5t-40 -17.5t-17 -40.5v-839zM297 1298v150q0 6 5 11t11 5h144q14 0 14 -14v-152q0 -6 -4 -11t-10 -5h-144q-6 0 -11 5t-5 11z" />
<glyph unicode="&#xf7;" horiz-adv-x="960" d="M74 514v193q0 6 4 11t10 5h784q15 0 15 -14v-195q0 -6 -5.5 -11t-11.5 -5h-780q-6 0 -11 5t-5 11zM369 246v143q0 17 12 29t29 12h141q17 0 29 -12t12 -29v-143q0 -17 -12 -29t-29 -12h-141q-17 0 -29 12t-12 29zM369 831v144q0 17 12 29t29 12h141q17 0 29 -12t12 -29 v-144q0 -17 -12 -28.5t-29 -11.5h-141q-17 0 -29 11.5t-12 28.5z" />
<glyph unicode="&#xf8;" horiz-adv-x="534" d="M12 45l49 131v10v850q0 86 60.5 146.5t146.5 60.5q101 0 166 -82l21 56q6 15 22 6l37 -21q13 -5 6 -22l-45 -123v-21v-850q0 -86 -60.5 -146t-146.5 -60q-105 0 -168 83l-20 -55q-7 -14 -23 -6l-39 21q-14 6 -6 22zM211 197q0 -25 16.5 -41.5t40.5 -16.5t41 17t17 41v465 l-115 -306v-159zM211 571l115 303v162q0 23 -17.5 40.5t-40.5 17.5t-40 -17.5t-17 -40.5v-465z" />
<glyph unicode="&#xf9;" horiz-adv-x="540" d="M63 186v1020q0 6 5.5 11.5t11.5 5.5h117q6 0 11 -4.5t5 -10.5v-1009q0 -24 16 -42t39 -18q25 0 42.5 16.5t17.5 41.5v1011q0 6 5 10.5t11 4.5h117q6 0 11 -4.5t5 -10.5v-1022q0 -86 -60.5 -146t-146.5 -60t-146.5 60t-60.5 146zM106.5 1458q3.5 6 14.5 6h129q16 0 22 -12 l82 -147q6 -11 2.5 -17t-14.5 -6h-129q-15 0 -23 12l-81 148q-6 10 -2.5 16z" />
<glyph unicode="&#xfa;" horiz-adv-x="540" d="M63 186v1022q0 6 5.5 10.5t11.5 4.5h117q6 0 11 -4.5t5 -10.5v-1011q0 -25 17 -41.5t42 -16.5q23 0 39.5 18t16.5 42v1009q0 6 5 10.5t11 4.5h117q6 0 11 -5.5t5 -11.5v-1020q0 -86 -60.5 -146t-146.5 -60t-146.5 60t-60.5 146zM194.5 1288q-3.5 6 2.5 17l82 147 q6 12 22 12h129q11 0 14.5 -6t-2.5 -16l-82 -148q-8 -12 -22 -12h-129q-11 0 -14.5 6z" />
<glyph unicode="&#xfb;" horiz-adv-x="540" d="M43 1300l84 154q7 10 18 10h250q12 0 19 -10l84 -154q9 -18 -11 -18h-137q-11 0 -18 10l-51 94q-5 9 -11 9t-10 -9l-51 -94q-7 -10 -19 -10h-137q-19 0 -10 18zM63 186v1020q0 6 5.5 11.5t11.5 5.5h117q6 0 11 -4.5t5 -10.5v-1009q0 -24 16 -42t39 -18q25 0 42.5 16.5 t17.5 41.5v1011q0 6 5 10.5t11 4.5h117q6 0 11 -4.5t5 -10.5v-1022q0 -86 -60.5 -146t-146.5 -60t-146.5 60t-60.5 146z" />
<glyph unicode="&#xfc;" horiz-adv-x="540" d="M63 186v1020q0 6 5.5 11.5t11.5 5.5h117q6 0 11 -4.5t5 -10.5v-1009q0 -24 16 -42t39 -18q25 0 42.5 16.5t17.5 41.5v1011q0 6 5 10.5t11 4.5h117q6 0 11 -4.5t5 -10.5v-1022q0 -86 -60.5 -146t-146.5 -60t-146.5 60t-60.5 146zM66 1298v150q0 6 5 11t11 5h143 q15 0 15 -14v-152q0 -6 -4.5 -11t-10.5 -5h-143q-6 0 -11 5t-5 11zM299 1298v150q0 6 5 11t11 5h144q14 0 14 -14v-152q0 -6 -4 -11t-10 -5h-144q-6 0 -11 5t-5 11z" />
<glyph unicode="&#xfd;" horiz-adv-x="456" d="M27 1206q-3 17 12 17h119q13 0 16 -15l47 -274q1 -7 4.5 -10t7.5 -0.5t5 10.5l47 274q3 15 16 15h117q15 0 12 -17l-123 -569q-2 -8 -2 -19v-602q0 -6 -5 -11t-11 -5h-119q-6 0 -11 5t-5 11l-2 602q0 11 -2 19zM155.5 1288q-3.5 6 2.5 17l82 147q6 12 22 12h129 q11 0 14.5 -6t-2.5 -16l-81 -148q-8 -12 -23 -12h-129q-11 0 -14.5 6z" />
<glyph unicode="&#xfe;" horiz-adv-x="524" d="M66 16v1190q0 6 5 11.5t11 5.5h119q6 0 10 -5.5t4 -11.5v-233q0 -6 5 -11.5t11 -5.5h99q60 0 104.5 -44t44.5 -107v-395q0 -62 -42 -107t-103 -45h-105q-14 0 -14 -14v-228q0 -6 -4 -11t-10 -5h-119q-6 0 -11 5t-5 11zM215 387q0 -6 5 -11t11 -5h35q26 0 45 18.5t19 44.5 v328q0 25 -19 43t-45 18h-35q-6 0 -11 -4t-5 -10v-422z" />
<glyph unicode="&#xff;" horiz-adv-x="456" d="M25 1298v150q0 6 5 11t11 5h143q15 0 15 -14v-152q0 -6 -4.5 -11t-10.5 -5h-143q-6 0 -11 5t-5 11zM27 1206q-3 17 12 17h119q13 0 16 -15l47 -274q1 -7 4.5 -10t7.5 -0.5t5 10.5l47 274q3 15 16 15h117q15 0 12 -17l-123 -569q-2 -8 -2 -19v-602q0 -6 -5 -11t-11 -5 h-119q-6 0 -11 5t-5 11l-2 602q0 11 -2 19zM258 1298v150q0 6 5 11t11 5h144q14 0 14 -14v-152q0 -6 -4 -11t-10 -5h-144q-6 0 -11 5t-5 11z" />
<glyph unicode="&#x152;" horiz-adv-x="1146" d="M43 610q0 51 3 102t12.5 115.5t24.5 120.5t42 112t62.5 95t88 63.5t115.5 24.5q54 0 109 -20h565q20 0 20 -21v-188q0 -21 -20 -21h-303q-21 0 -21 -20v-230q0 -20 21 -20h303q20 0 20 -21v-186q0 -20 -20 -20h-303q-21 0 -21 -21v-225q0 -9 6 -15t15 -6h303q20 0 20 -20 v-189q0 -20 -20 -20h-565q-55 -20 -109 -20q-63 0 -115.5 24.5t-88 63.5t-62.5 94t-42 111t-24.5 120.5t-12.5 115t-3 101.5zM268 610q-1 -24 2 -83t12.5 -141.5t38 -143t70.5 -60.5t70.5 60.5t38 143t12.5 141.5t2 83q1 24 -2 83t-12.5 141.5t-38 143t-70.5 60.5 t-70.5 -60.5t-38 -143t-12.5 -141.5t-2 -83z" />
<glyph unicode="&#x153;" horiz-adv-x="696" d="M57 186v850q0 86 60.5 146.5t146.5 60.5q45 0 90 -20h289q6 0 11 -4.5t5 -10.5v-118q0 -6 -4 -11.5t-10 -5.5h-160q-14 0 -14 -14v-428q0 -6 4 -11.5t10 -5.5h119q6 0 11.5 -4t5.5 -10v-121q0 -14 -15 -14h-121q-6 0 -10 -5t-4 -11v-285q0 -14 14 -14h160q6 0 10 -5.5 t4 -11.5v-119q0 -6 -5 -10t-11 -4h-289q-45 -20 -90 -20q-86 0 -146.5 60t-60.5 146zM207 197q0 -25 16.5 -41.5t40.5 -16.5t41 17t17 41v839q0 23 -17.5 40.5t-40.5 17.5t-40 -17.5t-17 -40.5v-839z" />
<glyph unicode="&#x178;" horiz-adv-x="684" d="M10 1204q-6 19 13 19h194q13 0 16 -13l99 -292q2 -7 6 -9.5t8 0t6 9.5l99 292q3 13 16 13h195q18 0 12 -19l-215 -596q-4 -16 -4 -18v-576q0 -14 -15 -14h-194q-6 0 -11.5 5t-5.5 11v574q0 2 -4 18zM127 1298v150q0 6 5 11t11 5h144q14 0 14 -14v-152q0 -6 -4 -11t-10 -5 h-144q-6 0 -11 5t-5 11zM360 1298v150q0 6 5.5 11t11.5 5h143q15 0 15 -14v-152q0 -6 -4.5 -11t-10.5 -5h-143q-6 0 -11.5 5t-5.5 11z" />
<glyph unicode="&#x2c6;" horiz-adv-x="581" d="M51 1300l84 154q7 10 19 10h249q12 0 19 -10l84 -154q9 -18 -10 -18h-138q-11 0 -18 10l-51 94q-5 9 -11 9t-10 -9l-51 -94q-7 -10 -18 -10h-138q-19 0 -10 18z" />
<glyph unicode="&#x2dc;" horiz-adv-x="671" d="M51 1298q-16 134 84 191q61 37 132.5 19.5t107.5 -81.5q12 -21 33.5 -27t44.5 5q29 14 26 59q-3 19 17 23l75 20q9 2 17 -2t8 -12q15 -133 -82 -190q-59 -37 -132.5 -19.5t-109.5 80.5q-10 22 -32.5 28t-42.5 -6q-32 -14 -29 -59q3 -18 -16 -22l-76 -21q-22 -4 -25 14z " />
<glyph unicode="&#x2000;" horiz-adv-x="781" />
<glyph unicode="&#x2001;" horiz-adv-x="1563" />
<glyph unicode="&#x2002;" horiz-adv-x="781" />
<glyph unicode="&#x2003;" horiz-adv-x="1563" />
<glyph unicode="&#x2004;" horiz-adv-x="521" />
<glyph unicode="&#x2005;" horiz-adv-x="390" />
<glyph unicode="&#x2006;" horiz-adv-x="260" />
<glyph unicode="&#x2007;" horiz-adv-x="260" />
<glyph unicode="&#x2008;" horiz-adv-x="195" />
<glyph unicode="&#x2009;" horiz-adv-x="312" />
<glyph unicode="&#x200a;" horiz-adv-x="86" />
<glyph unicode="&#x2010;" horiz-adv-x="581" d="M49 532v97q0 20 21 20h442q20 0 20 -20v-97q0 -20 -20 -20h-442q-21 0 -21 20z" />
<glyph unicode="&#x2011;" horiz-adv-x="581" d="M49 532v97q0 20 21 20h442q20 0 20 -20v-97q0 -20 -20 -20h-442q-21 0 -21 20z" />
<glyph unicode="&#x2012;" horiz-adv-x="581" d="M49 532v97q0 20 21 20h442q20 0 20 -20v-97q0 -20 -20 -20h-442q-21 0 -21 20z" />
<glyph unicode="&#x2013;" horiz-adv-x="673" d="M45 547v67q0 15 10.5 25t24.5 10h514q14 0 24.5 -10t10.5 -25v-67q0 -13 -10.5 -24t-24.5 -11h-514q-14 0 -24.5 11t-10.5 24z" />
<glyph unicode="&#x2014;" horiz-adv-x="886" d="M47 547v69q0 14 10.5 24.5t24.5 10.5h723q13 0 24 -10.5t11 -24.5v-69q0 -13 -11 -24t-24 -11h-723q-14 0 -24.5 11t-10.5 24z" />
<glyph unicode="&#x2018;" horiz-adv-x="288" d="M31 862v176q0 66 35 110t102 75q8 0 8 -6v-62q0 -3 -6 -6q-31 -12 -45 -31t-23 -47q-3 -8 4 -8h123q11 0 18 -7.5t7 -17.5v-176q0 -12 -7 -19t-18 -7h-174q-24 0 -24 26z" />
<glyph unicode="&#x2019;" horiz-adv-x="288" d="M31 1020v176q0 12 6.5 19.5t17.5 7.5h174q11 0 18 -7.5t7 -19.5v-176q0 -66 -35 -109.5t-102 -74.5q-8 0 -8 6v61q0 3 6 6q30 12 44 30.5t23 47.5q3 8 -4 8h-123q-10 0 -17 7t-7 18z" />
<glyph unicode="&#x201a;" horiz-adv-x="307" d="M43 25v176q0 12 7 19t18 7h174q24 0 24 -26v-176q0 -66 -35 -110t-102 -75q-8 0 -8 6v62q0 3 6 6q31 12 45 31t23 47q3 8 -5 8h-122q-10 0 -17.5 7t-7.5 18z" />
<glyph unicode="&#x201c;" horiz-adv-x="618" d="M41 862v176q0 66 35 110t102 75q8 0 8 -6v-62q0 -3 -6 -6q-30 -12 -44 -30.5t-23 -47.5q-3 -8 4 -8h123q10 0 17 -7t7 -18v-176q0 -26 -24 -26h-174q-11 0 -18 7t-7 19zM352 862v176q0 66 35 110t102 75q9 0 9 -6v-62q0 -3 -6 -6q-31 -12 -45 -31t-23 -47q-3 -8 4 -8h123 q10 0 17 -7t7 -18v-176q0 -26 -24 -26h-174q-11 0 -18 7t-7 19z" />
<glyph unicode="&#x201d;" horiz-adv-x="600" d="M41 1020v176q0 12 7 19.5t18 7.5h174q11 0 17.5 -7.5t6.5 -19.5v-176q0 -66 -35 -109.5t-102 -74.5q-8 0 -8 6v61q0 3 6 6q31 12 45 31t23 47q3 8 -5 8h-122q-10 0 -17.5 7.5t-7.5 17.5zM352 1020v176q0 12 7 19.5t18 7.5h174q11 0 17.5 -7.5t6.5 -19.5v-176 q0 -66 -35 -109.5t-102 -74.5q-8 0 -8 6v61q0 3 6 6q31 12 45 31t23 47q3 8 -4 8h-123q-11 0 -18 7.5t-7 17.5z" />
<glyph unicode="&#x201e;" horiz-adv-x="618" d="M43 25v176q0 12 7 19t18 7h174q24 0 24 -26v-176q0 -66 -35 -110t-102 -75q-8 0 -8 6v62q0 3 6 6q31 12 45 31t23 47q3 8 -5 8h-122q-10 0 -17.5 7t-7.5 18zM354 25v176q0 12 7 19t18 7h174q11 0 18 -7t7 -19v-176q0 -121 -138 -185q-8 0 -8 6v62q0 3 6 6q31 12 45 31 t23 47q3 8 -4 8h-123q-11 0 -18 7t-7 18z" />
<glyph unicode="&#x2022;" horiz-adv-x="555" d="M102 485v226q0 26 19 44.5t47 18.5h219q28 0 47 -18.5t19 -44.5v-226q0 -26 -19 -44.5t-47 -18.5h-219q-28 0 -47 18.5t-19 44.5z" />
<glyph unicode="&#x2026;" horiz-adv-x="915" d="M39 41v143q0 17 12 29t29 12h141q17 0 29 -12t12 -29v-143q0 -17 -12 -29t-29 -12h-141q-17 0 -29 12t-12 29zM346 41v143q0 17 12 29t29 12h141q17 0 29 -12t12 -29v-143q0 -17 -12 -29t-29 -12h-141q-17 0 -29 12t-12 29zM653 41v143q0 17 12 29t29 12h142q17 0 29 -12 t12 -29v-143q0 -17 -12 -29t-29 -12h-142q-17 0 -29 12t-12 29z" />
<glyph unicode="&#x202f;" horiz-adv-x="312" />
<glyph unicode="&#x205f;" horiz-adv-x="390" />
<glyph unicode="&#x20ac;" horiz-adv-x="876" d="M31 467v90q0 6 4 11t10 5h98v35v47h-96q-6 0 -11 5.5t-5 11.5v90q0 6 4 11t10 5h107q49 465 354 465q51 0 93 -9.5t73 -23.5t55 -39.5t40 -49.5t27.5 -61.5t17 -67t9 -75t4 -76.5t0.5 -79q0 -21 -20 -21h-191q-20 0 -20 21q0 45 -1 73t-4 58.5t-9.5 47.5t-17 32.5 t-27 21.5t-39.5 6q-97 0 -119 -223h115q14 0 14 -14v-92q0 -6 -5.5 -11.5t-11.5 -5.5h-120v-47v-35h123q14 0 14 -14v-92q0 -6 -5.5 -11t-11.5 -5h-114q25 -230 121 -230q23 0 39.5 6t27.5 21.5t17.5 32.5t9 48.5t3.5 58t1 73.5q0 20 20 20h191q20 0 20 -20q0 -48 -0.5 -79 t-4 -76.5t-9 -75t-17 -67t-27.5 -61.5t-40 -49.5t-55 -39.5t-73 -23.5t-93 -9.5q-308 0 -354 471h-105q-6 0 -11 5t-5 11z" />
<glyph unicode="&#x25fc;" horiz-adv-x="1218" d="M0 0v1219h1219v-1219h-1219z" />
</font>
</defs>
</svg>
