<?xml version="1.0" standalone="no"?>
<!DOCTYPE svg PUBLIC "-//W3C//DTD SVG 1.1//EN" "http://www.w3.org/Graphics/SVG/1.1/DTD/svg11.dtd" >
<svg xmlns="http://www.w3.org/2000/svg" xmlns:xlink="http://www.w3.org/1999/xlink" version="1.1">
<metadata></metadata>
<defs>
<font id="jamesblack" horiz-adv-x="892" >
<font-face units-per-em="2048" ascent="1638" descent="-410" />
<missing-glyph horiz-adv-x="352" />
<glyph horiz-adv-x="0" />
<glyph horiz-adv-x="682" />
<glyph unicode=" "  horiz-adv-x="352" />
<glyph unicode="&#x09;" horiz-adv-x="352" />
<glyph unicode="&#xa0;" horiz-adv-x="352" />
<glyph unicode="!" horiz-adv-x="401" d="M104 0v190h193v-190h-193zM104 264v883h191l2 -883h-193z" />
<glyph unicode="&#x22;" horiz-adv-x="634" d="M84 756v391h190v-391h-190zM358 756v391h193v-391h-193z" />
<glyph unicode="$" horiz-adv-x="843" d="M98 477v670h287v-191h-94v-286h454v-670h-286v190h92v287h-453zM102 0v285h191v-95h92v-190h-283zM326 -68h192v-254h-192v254zM326 1235v254h192v-254h-192zM459 956v191h282v-285h-190v94h-92z" />
<glyph unicode="&#x26;" horiz-adv-x="860" d="M102 0v1147h297v-193h-104l-2 -284h297v-191h-297v-289h106v-190h-297zM342 -78h193v-254h-193v254zM342 1223v254h193v-254h-193zM475 0v190h109v105h190v-295h-299zM475 954v193h299v-295h-192v102h-107z" />
<glyph unicode="'" horiz-adv-x="358" d="M84 756v391h190v-391h-190z" />
<glyph unicode="(" horiz-adv-x="638" d="M104 -193v1532h205v-1532h-205zM385 0h201v-193h-201v193zM385 1147v192h201v-192h-201z" />
<glyph unicode=")" horiz-adv-x="638" d="M53 0h201v-193h-201v193zM53 1147v192h201v-192h-201zM330 -193v1532h205v-1532h-205z" />
<glyph unicode="+" horiz-adv-x="794" d="M61 492v190h242v242h191v-242h239v-190h-239v-240h-191v240h-242z" />
<glyph unicode="," horiz-adv-x="446" d="M80 0v287h289v-287l-74 -145h-160l72 145h-127z" />
<glyph unicode="-" horiz-adv-x="860" d="M94 514v193h672v-193h-672z" />
<glyph unicode="." horiz-adv-x="448" d="M80 0v287h289v-287h-289z" />
<glyph unicode="/" horiz-adv-x="653" d="M27 -410l409 1966h191l-410 -1966h-190z" />
<glyph unicode="0" d="M102 0v1147h308v-207h-101v-735h101v-205h-308zM483 0v205h101l2 735h-101v207h306v-1147h-308z" />
<glyph unicode="1" horiz-adv-x="591" d="M31 952v195h194v-195h-194zM297 0l2 1147h190v-1147h-192z" />
<glyph unicode="2" horiz-adv-x="843" d="M98 0v670h453v284h-92v193h286v-670h-452v-284h92v-193h-287zM102 860v287h283v-193h-92v-94h-191zM459 0v193h92v94h190v-287h-282z" />
<glyph unicode="3" horiz-adv-x="860" d="M86 0v295h190v-102h109v-193h-299zM86 852v295h299v-191h-106v-104h-193zM348 479v193h219l-2 284h-104v191h297v-1147h-297v193h106v286h-219z" />
<glyph unicode="4" horiz-adv-x="825" d="M78 477v193h364v-193h-364zM78 743v404h190l2 -404h-192zM518 0v1147h205v-1147h-205z" />
<glyph unicode="5" horiz-adv-x="843" d="M98 479v668h287v-193h-94l2 -282l452 2v-674h-286v193h92v286h-453zM102 0v287h191v-94h92v-193h-283zM463 954v193h282v-193h-282z" />
<glyph unicode="6" horiz-adv-x="845" d="M102 0v1147h207v-1147h-207zM383 0v190h174v289h-174v193h365v-672h-365zM383 954v193h365v-193h-365z" />
<glyph unicode="7" horiz-adv-x="729" d="M33 956v191h643v-191h-643zM225 0l250 883h201l-250 -883h-201z" />
<glyph unicode="8" horiz-adv-x="845" d="M102 0v492l70 83l-70 87v485h283v-191h-92l2 -284h92v-193h-92v-289h92v-190h-285zM461 0v190h92v289h-92v193h92v284h-92v191h284v-485l-71 -87l71 -83v-492h-284z" />
<glyph unicode="9" horiz-adv-x="845" d="M98 0v193h365v-193h-365zM98 475v672h365v-191h-174v-288h174v-193h-365zM537 0v1147h206v-1147h-206z" />
<glyph unicode=":" horiz-adv-x="477" d="M94 0v287h289v-287h-289zM94 399v287h289v-287h-289z" />
<glyph unicode=";" horiz-adv-x="477" d="M94 0v287h289v-287l-74 -145h-159l71 145h-127zM94 399v287h289v-287h-289z" />
<glyph unicode="=" horiz-adv-x="880" d="M104 328v190h672v-190h-672zM104 614v193h672v-193h-672z" />
<glyph unicode="?" horiz-adv-x="829" d="M100 0v190h193v-190h-193zM100 264v404h453v286h-92v193h287v-672h-453v-211h-195zM104 860v287h283v-193h-92v-94h-191z" />
<glyph unicode="@" horiz-adv-x="1118" d="M102 0v1147h914v-881h-207v688h-514v-764h721v-190h-914zM371 266v615h362v-191h-172v-233h172v-191h-362z" />
<glyph unicode="A" horiz-adv-x="798" d="M16 0l248 932l96 -361l-153 -571h-191zM305 1075l19 72h153l307 -1147h-192l-43 166h-219l53 201h111z" />
<glyph unicode="B" horiz-adv-x="845" d="M102 0v1147h207v-1147h-207zM383 0v193h174v286h-174v191h174v286h-174v191h365v-488l-70 -84l70 -86v-489h-365z" />
<glyph unicode="C" horiz-adv-x="851" d="M102 0v1147h297v-193h-106l2 -764h104v-190h-297zM475 0v190h107v105h192v-295h-299zM475 954v193h299v-295h-190v102h-109z" />
<glyph unicode="D" horiz-adv-x="847" d="M102 0v1147h207v-1147h-207zM383 0v193h174v763h-174v191h295l70 -84v-977l-70 -86h-295z" />
<glyph unicode="E" horiz-adv-x="788" d="M102 0v1147h191l2 -475h217v-193h-217v-479h-193zM369 0v190h376v-190h-376zM371 956v191h286v-191h-286z" />
<glyph unicode="F" horiz-adv-x="690" d="M102 0v1147h191l2 -475h217v-193h-217v-479h-193zM371 956v191h286v-191h-286z" />
<glyph unicode="G" horiz-adv-x="872" d="M102 0v1147h297v-193h-106l2 -761h104v-193h-297zM475 0v193h109l-2 192h-97v190h289v-575h-299zM475 954v193h299v-295h-190v102h-109z" />
<glyph unicode="H" horiz-adv-x="991" d="M102 0v1147h191v-1147h-191zM369 479v193h254v-193h-254zM698 0v1147h191v-1147h-191z" />
<glyph unicode="I" horiz-adv-x="395" d="M102 0v1147h191v-1147h-191z" />
<glyph unicode="J" horiz-adv-x="823" d="M49 0v383h193v-193h106v-190h-299zM422 0v190h106l2 957h191v-1147h-299z" />
<glyph unicode="K" horiz-adv-x="847" d="M102 0v1147h207v-1147h-207zM383 385v375l444 -760h-219zM424 834l184 313h219l-292 -502z" />
<glyph unicode="L" horiz-adv-x="772" d="M102 0v1147h191l2 -1147h-193zM369 0v190h376v-190h-376z" />
<glyph unicode="M" horiz-adv-x="1120" d="M102 0v891l193 -600v-291h-193zM102 1135v12h193l264 -842l191 610v-610l-95 -303v-2h-192v2zM823 1147h195l-2 -1147h-191z" />
<glyph unicode="N" horiz-adv-x="983" d="M102 0v1147h207l-2 -1147h-205zM383 569v455l498 -1024h-219zM674 592v555h207v-979z" />
<glyph unicode="O" d="M102 0v1147h308v-207h-101v-735h101v-205h-308zM483 0v205h101l2 735h-101v207h306v-1147h-308z" />
<glyph unicode="P" horiz-adv-x="825" d="M102 0v1147h207v-1147h-207zM383 475v191h174v288h-174v193h365v-672h-365z" />
<glyph unicode="Q" d="M102 0v1147h308v-207h-101v-735h101v-205h-308zM481 -207l2 412h101l2 735h-101v207h306v-1147h-103v-207h-207z" />
<glyph unicode="R" horiz-adv-x="835" d="M102 0v1147h207v-1147h-207zM383 399h207l158 -399h-205zM383 477v193h174v284h-174v193h365v-670h-365z" />
<glyph unicode="S" horiz-adv-x="843" d="M98 477v670h287v-193h-92v-284h452v-670h-286v193h92v284h-453zM102 0v287h191v-94h92v-193h-283zM459 954v193h282v-287h-190v94h-92z" />
<glyph unicode="T" horiz-adv-x="753" d="M33 942v205h688v-205h-688zM274 0v868h205v-868h-205z" />
<glyph unicode="U" d="M102 0v1147h207v-942h101v-205h-308zM483 0v205h101l2 942h205v-1147h-308z" />
<glyph unicode="V" horiz-adv-x="798" d="M14 1147h191l307 -1147h-190zM438 571l152 576h192l-250 -932z" />
<glyph unicode="W" horiz-adv-x="1372" d="M14 1147h191l307 -1147h-190zM436 571l154 576h192l-250 -932zM725 635l96 360l266 -995h-192zM1012 571l151 576h193l-248 -932z" />
<glyph unicode="X" horiz-adv-x="835" d="M29 0l235 487l111 -227l-125 -260h-221zM29 1147h221l557 -1147h-221zM459 885l127 262h221l-238 -490z" />
<glyph unicode="Y" horiz-adv-x="849" d="M2 1147h207l319 -653v-494h-206v492zM467 786l174 361h207l-279 -572z" />
<glyph unicode="Z" horiz-adv-x="905" d="M63 0v205h779v-205h-779zM63 281l512 585h267l-512 -585h-267zM63 940v207h779v-207h-779z" />
<glyph unicode="[" horiz-adv-x="638" d="M104 -193v1532h205v-1532h-205zM385 0h201v-193h-201v193zM385 1147v192h201v-192h-201z" />
<glyph unicode="\" horiz-adv-x="653" d="M27 1556h190l410 -1966h-191z" />
<glyph unicode="]" horiz-adv-x="638" d="M53 0h201v-193h-201v193zM53 1147v192h201v-192h-201zM330 -193v1532h205v-1532h-205z" />
<glyph unicode="^" horiz-adv-x="671" d="M59 610l144 537h190l-143 -537h-191zM377 786l94 357l143 -533h-192z" />
<glyph unicode="_" horiz-adv-x="876" d="M0 -113h877v-192h-877v192z" />
<glyph unicode="`" horiz-adv-x="1228" d="M510 1466h158l51 -196h-156z" />
<glyph unicode="a" horiz-adv-x="798" d="M16 0l248 932l96 -361l-153 -571h-191zM305 1075l19 72h153l307 -1147h-192l-43 166h-219l53 201h111z" />
<glyph unicode="b" horiz-adv-x="845" d="M102 0v1147h207v-1147h-207zM383 0v193h174v286h-174v191h174v286h-174v191h365v-488l-70 -84l70 -86v-489h-365z" />
<glyph unicode="c" horiz-adv-x="851" d="M102 0v1147h297v-193h-106l2 -764h104v-190h-297zM475 0v190h107v105h192v-295h-299zM475 954v193h299v-295h-190v102h-109z" />
<glyph unicode="d" horiz-adv-x="847" d="M102 0v1147h207v-1147h-207zM383 0v193h174v763h-174v191h295l70 -84v-977l-70 -86h-295z" />
<glyph unicode="e" horiz-adv-x="788" d="M102 0v1147h191l2 -475h217v-193h-217v-479h-193zM369 0v190h376v-190h-376zM371 956v191h286v-191h-286z" />
<glyph unicode="f" horiz-adv-x="690" d="M102 0v1147h191l2 -475h217v-193h-217v-479h-193zM371 956v191h286v-191h-286z" />
<glyph unicode="g" horiz-adv-x="872" d="M102 0v1147h297v-193h-106l2 -761h104v-193h-297zM475 0v193h109l-2 192h-97v190h289v-575h-299zM475 954v193h299v-295h-190v102h-109z" />
<glyph unicode="h" horiz-adv-x="991" d="M102 0v1147h191v-1147h-191zM369 479v193h254v-193h-254zM698 0v1147h191v-1147h-191z" />
<glyph unicode="i" horiz-adv-x="395" d="M102 0v1147h191v-1147h-191z" />
<glyph unicode="j" horiz-adv-x="823" d="M49 0v383h193v-193h106v-190h-299zM422 0v190h106l2 957h191v-1147h-299z" />
<glyph unicode="k" horiz-adv-x="847" d="M102 4v1143h207v-1147zM383 385v375l444 -760h-219zM424 834l184 313h219l-292 -502z" />
<glyph unicode="l" horiz-adv-x="772" d="M102 0v1147h191l2 -1147h-193zM369 0v190h376v-190h-376z" />
<glyph unicode="m" horiz-adv-x="1120" d="M102 0v891l193 -600v-291h-193zM102 1135v12h193l264 -842l191 610v-610l-95 -303v-2h-192v2zM823 1147h195l-2 -1147h-191z" />
<glyph unicode="n" horiz-adv-x="983" d="M102 0v1147h207l-2 -1147h-205zM383 569v455l498 -1024h-219zM674 592v555h207v-979z" />
<glyph unicode="o" d="M102 0v1147h308v-207h-101v-735h101v-205h-308zM483 0v205h101l2 735h-101v207h306v-1147h-308z" />
<glyph unicode="p" horiz-adv-x="825" d="M102 0v1147h207v-1147h-207zM383 475v191h174v288h-174v193h365v-672h-365z" />
<glyph unicode="q" d="M102 0v1147h308v-207h-101v-735h101v-205h-308zM481 -207l2 412h101l2 735h-101v207h306v-1147h-103v-207h-207z" />
<glyph unicode="r" horiz-adv-x="835" d="M102 0v1147h207v-1147h-207zM383 399h207l158 -399h-205zM383 477v193h174v284h-174v193h365v-670h-365z" />
<glyph unicode="s" horiz-adv-x="843" d="M98 477v670h287v-193h-92v-284h452v-670h-286v193h92v284h-453zM102 0v287h191v-94h92v-193h-283zM459 954v193h282v-287h-190v94h-92z" />
<glyph unicode="t" horiz-adv-x="753" d="M33 942v205h688v-205h-688zM274 0v868h205v-868h-205z" />
<glyph unicode="u" d="M102 0v1147h207v-942h101v-205h-308zM483 0v205h101l2 942h205v-1147h-308z" />
<glyph unicode="v" horiz-adv-x="798" d="M14 1147h191l307 -1147h-190zM438 571l152 576h192l-250 -932z" />
<glyph unicode="w" horiz-adv-x="1372" d="M14 1147h191l307 -1147h-190zM436 571l154 576h192l-250 -932zM725 635l96 360l266 -995h-192zM1012 571l151 576h193l-248 -932z" />
<glyph unicode="x" horiz-adv-x="835" d="M29 0l235 487l111 -227l-125 -260h-221zM29 1147h221l557 -1147h-221zM459 885l127 262h221l-238 -490z" />
<glyph unicode="y" horiz-adv-x="849" d="M2 1147h207l319 -653v-494h-206v492zM467 786l174 361h207l-279 -572z" />
<glyph unicode="z" horiz-adv-x="905" d="M63 0v205h779v-205h-779zM63 281l512 585h267l-512 -585h-267zM63 940v207h779v-207h-779z" />
<glyph unicode="&#xa1;" horiz-adv-x="380" d="M94 -410v883h193l-2 -883h-191zM94 547v190h193v-190h-193z" />
<glyph unicode="&#xa2;" horiz-adv-x="862" d="M102 0v1147h297v-191h-106v-766h106v-190h-297zM344 -78h191v-254h-191v254zM344 1225v254h191v-254h-191zM475 0v190h109v105h190v-295h-299zM475 956v191h299v-293h-190v102h-109z" />
<glyph unicode="&#xa3;" horiz-adv-x="993" d="M43 479v191h272l2 477h289v-193h-98v-284h272v-191h-272v-479h-291v190h98v289h-272zM582 0v190h376v-190h-376z" />
<glyph unicode="&#xa4;" horiz-adv-x="1200" d="M57 170l183 182l139 -139l-182 -182zM57 977l140 139l182 -182l-139 -139zM123 571l211 -209l135 136l-74 73l76 76l-135 137zM389 307l209 -211l213 213l-137 135l-76 -75l-74 73zM389 838l213 213l209 -211l-135 -135l-76 73l-76 -73zM731 498l74 75l-74 76l135 135 l211 -209l-213 -213zM821 213l140 139l182 -182l-139 -139zM821 934l183 182l139 -139l-182 -182z" />
<glyph unicode="&#xa5;" horiz-adv-x="915" d="M35 1147h207l301 -617h254v-190h-236v-70h236v-190h-236v-80h-207v80h-235v190h235v70h-235v190h217zM500 788l174 359h207l-279 -569z" />
<glyph unicode="&#xa8;" horiz-adv-x="1226" d="M369 1270v196h194v-196h-194zM662 1270v196h196v-196h-196z" />
<glyph unicode="&#xad;" horiz-adv-x="860" d="M94 514v193h672v-193h-672z" />
<glyph unicode="&#xaf;" horiz-adv-x="1226" d="M369 1270v196h489v-196h-489z" />
<glyph unicode="&#xb4;" horiz-adv-x="1228" d="M510 1270l51 196h158l-53 -196h-156z" />
<glyph unicode="&#xb7;" horiz-adv-x="477" d="M94 410v286h289v-286h-289z" />
<glyph unicode="&#xb8;" horiz-adv-x="1228" d="M434 0h197l164 -236v-88l-72 -86h-279v177l152 -3z" />
<glyph unicode="&#xbf;" horiz-adv-x="811" d="M57 262h453v211h195v-403h-453v-287h92v-193h-287v672zM418 -217h92v94h190v-287h-282v193zM512 547v190h193v-190h-193z" />
<glyph unicode="&#xc0;" horiz-adv-x="798" d="M16 0l248 932l96 -361l-153 -571h-191zM233 1466h158l51 -196h-155zM305 1075l19 72h153l307 -1147h-192l-43 166h-219l53 201h111z" />
<glyph unicode="&#xc1;" horiz-adv-x="798" d="M16 0l248 932l96 -361l-153 -571h-191zM305 1075l19 72h153l307 -1147h-192l-43 166h-219l53 201h111zM352 1270l51 196h158l-53 -196h-156z" />
<glyph unicode="&#xc2;" horiz-adv-x="798" d="M16 0l248 932l96 -361l-153 -571h-191zM209 1270l53 196h289l51 -196h-156l-40 149l-39 -149h-158zM305 1075l19 72h153l307 -1147h-192l-43 166h-219l53 201h111z" />
<glyph unicode="&#xc3;" horiz-adv-x="798" d="M16 0l248 932l96 -361l-153 -571h-191zM123 1270v125l86 71h199l127 -114v114h174v-125l-86 -71h-207l-117 112v-112h-176zM305 1075l19 72h153l307 -1147h-192l-43 166h-219l53 201h111z" />
<glyph unicode="&#xc4;" horiz-adv-x="798" d="M16 0l248 932l96 -361l-153 -571h-191zM158 1270v196h194v-196h-194zM305 1075l19 72h153l307 -1147h-192l-43 166h-219l53 201h111zM451 1270v196h196v-196h-196z" />
<glyph unicode="&#xc5;" horiz-adv-x="798" d="M16 0l248 932l96 -361l-153 -571h-191zM287 1270v196h96v-65h-31v-66h31v-65h-96zM305 1075l19 72h153l307 -1147h-192l-43 166h-219l53 201h111zM432 1270v65h33v66h-33v65h96v-196h-96z" />
<glyph unicode="&#xc6;" horiz-adv-x="1185" d="M2 0l424 1147v-504l-233 -643h-191zM332 168l74 201h96v778h192v-477h217v-193h-217v-477h-192v168h-170zM768 0v190h375v-190h-375zM768 956v191h287v-191h-287z" />
<glyph unicode="&#xc7;" horiz-adv-x="851" d="M102 0v1147h297v-193h-106l2 -761l104 -3l238 -337v-89l-70 -83h-272v172h147l-102 147h-238zM475 193h107v102h192v-295h-166zM475 954v193h299v-295h-190v102h-109z" />
<glyph unicode="&#xc8;" horiz-adv-x="788" d="M102 0v1147h191l2 -475h217v-193h-217v-479h-193zM233 1466h158l51 -196h-155zM369 0v190h376v-190h-376zM371 956v191h286v-191h-286z" />
<glyph unicode="&#xc9;" horiz-adv-x="788" d="M102 0v1147h191l2 -475h217v-193h-217v-479h-193zM305 1270l51 196h158l-53 -196h-156zM369 0v190h376v-190h-376zM371 956v191h286v-191h-286z" />
<glyph unicode="&#xca;" horiz-adv-x="788" d="M102 0v1147h191l2 -475h217v-193h-217v-479h-193zM184 1270l54 196h288l52 -196h-156l-41 149l-39 -149h-158zM369 0v190h376v-190h-376zM371 956v191h286v-191h-286z" />
<glyph unicode="&#xcb;" horiz-adv-x="788" d="M102 0v1147h191l2 -475h217v-193h-217v-479h-193zM137 1270v196h195v-196h-195zM369 0v190h376v-190h-376zM371 956v191h286v-191h-286zM430 1270v196h197v-196h-197z" />
<glyph unicode="&#xcc;" horiz-adv-x="395" d="M66 1466h157l51 -196h-155zM102 0v1147h191v-1147h-191z" />
<glyph unicode="&#xcd;" horiz-adv-x="395" d="M102 0v1147h191v-1147h-191zM121 1270l51 196h158l-54 -196h-155z" />
<glyph unicode="&#xce;" horiz-adv-x="395" d="M0 1270l53 196h289l51 -196h-155l-41 149l-39 -149h-158zM102 0v1147h191v-1147h-191z" />
<glyph unicode="&#xcf;" horiz-adv-x="395" d="M-47 1270v196h194v-196h-194zM102 0v1147h191v-1147h-191zM246 1270v196h196v-196h-196z" />
<glyph unicode="&#xd0;" horiz-adv-x="985" d="M63 471v207h177v469h204v-469h179v-207h-179v-471h-204v471h-177zM520 0v190h174v766h-174v191h295l70 -84v-979l-70 -84h-295z" />
<glyph unicode="&#xd1;" horiz-adv-x="983" d="M102 0v1147h207l-2 -1147h-205zM199 1270v125l86 71h198l127 -114v114h174v-125l-86 -71h-206l-117 112v-112h-176zM383 569v455l498 -1024h-219zM674 592v555h207v-979z" />
<glyph unicode="&#xd2;" d="M102 0v1147h306v-207h-101l2 -735h101v-205h-308zM297 1466h158l51 -196h-156zM483 0v205h101v735h-101v207h308v-1147h-308z" />
<glyph unicode="&#xd3;" d="M102 0v1147h308v-207h-101v-735h101v-205h-308zM387 1270l51 196h158l-53 -196h-156zM483 0v205h101l2 735h-101v207h306v-1147h-308z" />
<glyph unicode="&#xd4;" d="M102 0v1147h308v-207h-101v-735h101v-205h-308zM250 1270l53 196h289l51 -196h-156l-41 149l-38 -149h-158zM483 0v205h101l2 735h-101v207h306v-1147h-308z" />
<glyph unicode="&#xd5;" d="M102 0v1147h306v-207h-101l2 -735h101v-205h-308zM150 1270v125l86 71h198l127 -114v114h174v-125l-86 -71h-207l-116 112v-112h-176zM483 0v205h101v735h-101v207h308v-1147h-308z" />
<glyph unicode="&#xd6;" d="M102 0v1147h308v-207h-101v-735h101v-205h-308zM205 1270v196h194v-196h-194zM483 0v205h101l2 735h-101v207h306v-1147h-308zM498 1270v196h196v-196h-196z" />
<glyph unicode="&#xd7;" horiz-adv-x="751" d="M72 410l168 168l-168 170l135 135l170 -168l168 168l135 -135l-168 -168l168 -170l-135 -138l-170 170l-168 -168z" />
<glyph unicode="&#xd8;" horiz-adv-x="946" d="M102 0v1147h308v-207h-101l-2 -625l223 832h314v-1147h-307v205h100v626l-221 -831h-314z" />
<glyph unicode="&#xd9;" d="M102 0v1147h205l2 -942h101v-205h-308zM297 1466h158l51 -196h-156zM483 0v205h101v942h207v-1147h-308z" />
<glyph unicode="&#xda;" d="M102 0v1147h207v-942h101v-205h-308zM367 1270l51 196h157l-53 -196h-155zM483 0v205h101l2 942h205v-1147h-308z" />
<glyph unicode="&#xdb;" d="M102 0v1147h207v-942h101v-205h-308zM250 1270l53 196h289l51 -196h-156l-41 149l-38 -149h-158zM483 0v205h101l2 942h205v-1147h-308z" />
<glyph unicode="&#xdc;" d="M102 0v1147h207v-942h101v-205h-308zM203 1270v196h194v-196h-194zM483 0v205h101l2 942h205v-1147h-308zM496 1270v196h196v-196h-196z" />
<glyph unicode="&#xdd;" horiz-adv-x="849" d="M2 1147h207l319 -653v-494h-206v492zM338 1270l51 196h158l-53 -196h-156zM467 786l174 361h207l-279 -572z" />
<glyph unicode="&#xde;" horiz-adv-x="831" d="M102 0v1147h207v-1147h-207zM383 238v190h174v289h-174v192h365v-671h-365z" />
<glyph unicode="&#xdf;" horiz-adv-x="845" d="M102 0v1147h646v-488l-70 -84l70 -86v-489h-365v193h174v286h-174v191h174v286h-248v-956h-207z" />
<glyph unicode="&#xe0;" horiz-adv-x="798" d="M16 0l248 932l96 -361l-153 -571h-191zM233 1466h158l51 -196h-155zM305 1075l19 72h153l307 -1147h-192l-43 166h-219l53 201h111z" />
<glyph unicode="&#xe1;" horiz-adv-x="798" d="M16 0l248 932l96 -361l-153 -571h-191zM305 1075l19 72h153l307 -1147h-192l-43 166h-219l53 201h111zM352 1270l51 196h158l-53 -196h-156z" />
<glyph unicode="&#xe2;" horiz-adv-x="798" d="M16 0l248 932l96 -361l-153 -571h-191zM209 1270l53 196h289l51 -196h-156l-40 149l-39 -149h-158zM305 1075l19 72h153l307 -1147h-192l-43 166h-219l53 201h111z" />
<glyph unicode="&#xe3;" horiz-adv-x="798" d="M16 0l248 932l96 -361l-153 -571h-191zM123 1270v125l86 71h199l127 -114v114h174v-125l-86 -71h-207l-117 112v-112h-176zM305 1075l19 72h153l307 -1147h-192l-43 166h-219l53 201h111z" />
<glyph unicode="&#xe4;" horiz-adv-x="798" d="M16 0l248 932l96 -361l-153 -571h-191zM158 1270v196h194v-196h-194zM305 1075l19 72h153l307 -1147h-192l-43 166h-219l53 201h111zM451 1270v196h196v-196h-196z" />
<glyph unicode="&#xe5;" horiz-adv-x="798" d="M16 0l248 932l96 -361l-153 -571h-191zM287 1270v196h96v-65h-31v-66h31v-65h-96zM305 1075l19 72h153l307 -1147h-192l-43 166h-219l53 201h111zM432 1270v65h33v66h-33v65h96v-196h-96z" />
<glyph unicode="&#xe6;" horiz-adv-x="1185" d="M2 0l424 1147v-504l-233 -643h-191zM332 168l74 201h96v778h192v-477h217v-193h-217v-477h-192v168h-170zM768 0v190h375v-190h-375zM768 956v191h287v-191h-287z" />
<glyph unicode="&#xe7;" horiz-adv-x="851" d="M102 0v1147h297v-193h-106l2 -761l104 -3l238 -337v-89l-70 -83h-272v172h147l-102 147h-238zM475 193h107v102h192v-295h-166zM475 954v193h299v-295h-190v102h-109z" />
<glyph unicode="&#xe8;" horiz-adv-x="788" d="M102 0v1147h191l2 -475h217v-193h-217v-479h-193zM233 1466h158l51 -196h-155zM369 0v190h376v-190h-376zM371 956v191h286v-191h-286z" />
<glyph unicode="&#xe9;" horiz-adv-x="788" d="M102 0v1147h191l2 -475h217v-193h-217v-479h-193zM305 1270l51 196h158l-53 -196h-156zM369 0v190h376v-190h-376zM371 956v191h286v-191h-286z" />
<glyph unicode="&#xea;" horiz-adv-x="788" d="M102 0v1147h191l2 -475h217v-193h-217v-479h-193zM184 1270l54 196h288l52 -196h-156l-41 149l-39 -149h-158zM369 0v190h376v-190h-376zM371 956v191h286v-191h-286z" />
<glyph unicode="&#xeb;" horiz-adv-x="788" d="M102 0v1147h191l2 -475h217v-193h-217v-479h-193zM137 1270v196h195v-196h-195zM369 0v190h376v-190h-376zM371 956v191h286v-191h-286zM430 1270v196h197v-196h-197z" />
<glyph unicode="&#xec;" horiz-adv-x="395" d="M66 1466h157l51 -196h-155zM102 0v1147h191v-1147h-191z" />
<glyph unicode="&#xed;" horiz-adv-x="395" d="M102 0v1147h191v-1147h-191zM121 1270l51 196h158l-54 -196h-155z" />
<glyph unicode="&#xee;" horiz-adv-x="395" d="M0 1270l53 196h289l51 -196h-155l-41 149l-39 -149h-158zM102 0v1147h191v-1147h-191z" />
<glyph unicode="&#xef;" horiz-adv-x="395" d="M-47 1270v196h194v-196h-194zM102 0v1147h191v-1147h-191zM246 1270v196h196v-196h-196z" />
<glyph unicode="&#xf0;" horiz-adv-x="985" d="M63 471v207h177v469h204v-469h179v-207h-179v-471h-204v471h-177zM520 0v190h174v766h-174v191h295l70 -84v-979l-70 -84h-295z" />
<glyph unicode="&#xf1;" horiz-adv-x="983" d="M102 0v1147h207l-2 -1147h-205zM199 1270v125l86 71h198l127 -114v114h174v-125l-86 -71h-206l-117 112v-112h-176zM383 569v455l498 -1024h-219zM674 592v555h207v-979z" />
<glyph unicode="&#xf2;" d="M102 0v1147h306v-207h-101l2 -735h101v-205h-308zM297 1466h158l51 -196h-156zM483 0v205h101v735h-101v207h308v-1147h-308z" />
<glyph unicode="&#xf3;" d="M102 0v1147h308v-207h-101v-735h101v-205h-308zM387 1270l51 196h158l-53 -196h-156zM483 0v205h101l2 735h-101v207h306v-1147h-308z" />
<glyph unicode="&#xf4;" d="M102 0v1147h308v-207h-101v-735h101v-205h-308zM250 1270l53 196h289l51 -196h-156l-41 149l-38 -149h-158zM483 0v205h101l2 735h-101v207h306v-1147h-308z" />
<glyph unicode="&#xf5;" d="M102 0v1147h306v-207h-101l2 -735h101v-205h-308zM150 1270v125l86 71h198l127 -114v114h174v-125l-86 -71h-207l-116 112v-112h-176zM483 0v205h101v735h-101v207h308v-1147h-308z" />
<glyph unicode="&#xf6;" d="M102 0v1147h308v-207h-101v-735h101v-205h-308zM205 1270v196h194v-196h-194zM483 0v205h101l2 735h-101v207h306v-1147h-308zM498 1270v196h196v-196h-196z" />
<glyph unicode="&#xf7;" horiz-adv-x="1011" d="M70 483v193l872 -2v-191h-872zM412 195v188h190v-188h-190zM412 774v189h190v-189h-190z" />
<glyph unicode="&#xf8;" horiz-adv-x="946" d="M102 0v1147h308v-207h-101l-2 -625l223 832h314v-1147h-307v205h100v626l-221 -831h-314z" />
<glyph unicode="&#xf9;" d="M102 0v1147h205l2 -942h101v-205h-308zM297 1466h158l51 -196h-156zM483 0v205h101v942h207v-1147h-308z" />
<glyph unicode="&#xfa;" d="M102 0v1147h207v-942h101v-205h-308zM367 1270l51 196h157l-53 -196h-155zM483 0v205h101l2 942h205v-1147h-308z" />
<glyph unicode="&#xfb;" d="M102 0v1147h207v-942h101v-205h-308zM250 1270l53 196h289l51 -196h-156l-41 149l-38 -149h-158zM483 0v205h101l2 942h205v-1147h-308z" />
<glyph unicode="&#xfc;" d="M102 0v1147h207v-942h101v-205h-308zM203 1270v196h194v-196h-194zM483 0v205h101l2 942h205v-1147h-308zM496 1270v196h196v-196h-196z" />
<glyph unicode="&#xfd;" horiz-adv-x="849" d="M2 1147h207l319 -653v-494h-206v492zM338 1270l51 196h158l-53 -196h-156zM467 786l174 361h207l-279 -572z" />
<glyph unicode="&#xfe;" horiz-adv-x="831" d="M102 0v1147h207v-1147h-207zM383 238v190h174v289h-174v192h365v-671h-365z" />
<glyph unicode="&#xff;" horiz-adv-x="849" d="M2 1147h207l319 -653v-494h-206v492zM176 1270v196h195v-196h-195zM467 786l174 361h207l-279 -572zM469 1270v196h197v-196h-197z" />
<glyph unicode="&#x152;" horiz-adv-x="1239" d="M100 86v977l70 84h295v-191h-174v-763h174v-193h-295zM539 0v1147h206v-475h218v-193h-218v-479h-206zM819 0v190h377v-190h-377zM821 956v191h287v-191h-287z" />
<glyph unicode="&#x153;" horiz-adv-x="1239" d="M100 86v977l70 84h295v-191h-174v-763h174v-193h-295zM539 0v1147h206v-475h218v-193h-218v-479h-206zM819 0v190h377v-190h-377zM821 956v191h287v-191h-287z" />
<glyph unicode="&#x178;" horiz-adv-x="849" d="M2 1147h207l319 -653v-494h-206v492zM176 1270v196h195v-196h-195zM467 786l174 361h207l-279 -572zM469 1270v196h197v-196h-197z" />
<glyph unicode="&#x2c6;" horiz-adv-x="1228" d="M418 1270l53 196h289l51 -196h-156l-41 149l-39 -149h-157z" />
<glyph unicode="&#x2dc;" horiz-adv-x="1228" d="M322 1270v125l86 71h198l127 -114v114h174v-125l-86 -71h-207l-116 112v-112h-176z" />
<glyph unicode="&#x2000;" horiz-adv-x="778" />
<glyph unicode="&#x2001;" horiz-adv-x="1556" />
<glyph unicode="&#x2002;" horiz-adv-x="778" />
<glyph unicode="&#x2003;" horiz-adv-x="1556" />
<glyph unicode="&#x2004;" horiz-adv-x="518" />
<glyph unicode="&#x2005;" horiz-adv-x="389" />
<glyph unicode="&#x2006;" horiz-adv-x="259" />
<glyph unicode="&#x2007;" horiz-adv-x="259" />
<glyph unicode="&#x2008;" horiz-adv-x="194" />
<glyph unicode="&#x2009;" horiz-adv-x="311" />
<glyph unicode="&#x200a;" horiz-adv-x="86" />
<glyph unicode="&#x2010;" horiz-adv-x="860" d="M94 514v193h672v-193h-672z" />
<glyph unicode="&#x2011;" horiz-adv-x="860" d="M94 514v193h672v-193h-672z" />
<glyph unicode="&#x2012;" horiz-adv-x="860" d="M94 514v193h672v-193h-672z" />
<glyph unicode="&#x2013;" horiz-adv-x="1064" d="M94 514v193h877v-193h-877z" />
<glyph unicode="&#x2014;" horiz-adv-x="1474" d="M94 514v193h1286v-193h-1286z" />
<glyph unicode="&#x2018;" horiz-adv-x="448" d="M82 715v284l72 148h161l-71 -146h125v-286h-287z" />
<glyph unicode="&#x2019;" horiz-adv-x="434" d="M74 860v287h286v-285l-71 -147h-162l72 145h-125z" />
<glyph unicode="&#x201a;" horiz-adv-x="446" d="M80 0v287h289v-287l-74 -145h-160l72 145h-127z" />
<glyph unicode="&#x201c;" horiz-adv-x="800" d="M82 715v284l72 148h161l-71 -146h125v-286h-287zM434 715v284l72 148h160l-72 -146h127v-286h-287z" />
<glyph unicode="&#x201d;" horiz-adv-x="786" d="M74 860v287h286v-285l-71 -147h-160l72 145h-127zM426 860v287h287v-285l-72 -147h-162l72 145h-125z" />
<glyph unicode="&#x201e;" horiz-adv-x="796" d="M80 0v287h287v-285l-72 -147h-160l72 145h-127zM432 0v287h287v-285l-72 -147h-162l72 145h-125z" />
<glyph unicode="&#x2022;" horiz-adv-x="739" d="M143 330v446h453v-446h-453z" />
<glyph unicode="&#x2026;" horiz-adv-x="448" d="M80 0v287h289v-287h-289z" />
<glyph unicode="&#x202f;" horiz-adv-x="311" />
<glyph unicode="&#x205f;" horiz-adv-x="389" />
<glyph unicode="&#x20ac;" horiz-adv-x="1024" d="M68 348v191h198v69h-198v193h198v346h297v-193h-104v-153h286v-193h-286v-69h286v-191h-286v-158h104v-190h-297v348h-198zM639 0v190h109v105h190v-295h-299zM639 954v193h299v-295h-190v102h-109z" />
<glyph unicode="&#x25fc;" horiz-adv-x="1146" d="M0 0v1147h1147v-1147h-1147z" />
</font>
</defs>
</svg>
